<?xml version="1.0" standalone="no"?>
<!DOCTYPE svg PUBLIC "-//W3C//DTD SVG 1.1//EN" "http://www.w3.org/Graphics/SVG/1.1/DTD/svg11.dtd" >
<svg xmlns="http://www.w3.org/2000/svg">
<metadata>
This is a custom SVG webfont generated by Font Squirrel.
Designer    : MicroPress Inc., with final additions and corrections provided by Coen Hoffman, Elsevier (retired)
Foundry URL : http://www.stixfonts.org
</metadata>
<defs>
<font id="webfontSsfHxKRo" horiz-adv-x="500" >
<font-face units-per-em="1000" ascent="750" descent="-250" />
<missing-glyph horiz-adv-x="250" />
<glyph unicode="IJ" horiz-adv-x="823" d="M913 669v-25q-40 -5 -55.5 -19t-29.5 -66l-122 -457q-26 -99 -82 -150t-133 -51q-67 0 -107.5 26.5t-40.5 74.5q0 30 18.5 51t45.5 21t45 -18t18 -47q0 -17 -11.5 -32t-11.5 -22q0 -18 27 -18t43.5 32t44.5 138l114 432q13 51 13 64q0 29 -41 36l-33 5v25h298zM406 669 v-25q-38 -4 -55 -19t-29 -61l-112 -412q-17 -62 -17 -87q0 -21 14.5 -29.5t56.5 -10.5v-25h-296v25q39 5 54 18t29 64l117 429q14 51 14 71q0 28 -42 33l-32 4v25h298z" />
<glyph unicode="ij" horiz-adv-x="552" d="M504 462l-116 -444q-31 -119 -81 -172t-126 -53q-47 0 -76 22t-29 55q0 22 14.5 37.5t34.5 15.5q22 0 35.5 -13.5t13.5 -35.5q0 -11 -7.5 -20t-7.5 -15q0 -15 24 -15q21 0 38 31t36 105l89 350q12 45 12 67q0 30 -41 30h-22v27q136 12 209 28zM544 617q0 -28 -20 -47.5 t-49 -19.5q-28 0 -47 20t-19 49q0 26 20 46t46 20q28 0 48.5 -20t20.5 -48zM216 142l22 -14q-48 -79 -85 -108t-83 -29q-68 0 -68 63q0 22 15 76l55 203q8 32 8 45q0 29 -46 29h-14v27q118 9 203 28l-91 -334q-9 -31 -9 -51q0 -16 15 -16q21 0 64 61zM262 616 q0 -28 -19.5 -47t-48.5 -19q-28 0 -47 20t-19 49q0 25 20 45t45 20q28 0 48.5 -20t20.5 -48z" />
<glyph unicode="&#xfb00;" horiz-adv-x="613" d="M236 449h165q35 125 79 181q55 68 147 68q45 0 72 -21.5t27 -58.5q0 -24 -14 -39t-37 -15q-21 0 -35 14.5t-14 35.5q0 13 8 24.5t8 17.5q0 13 -18 13q-26 0 -50 -40.5t-42 -113.5l-16 -66h135l-9 -42h-133q-63 -298 -95 -394q-42 -126 -90 -172q-47 -46 -114 -46 q-43 0 -71 22t-28 57q0 23 15 39t36 16q20 0 35 -14t15 -35q0 -14 -8 -25t-8 -17q0 -12 18 -12q30 0 48.5 39t41.5 150q11 54 88 392h-163q-63 -298 -95 -394q-42 -126 -90 -172q-47 -46 -114 -46q-43 0 -71 22t-28 57q0 23 15 39t36 16q20 0 35 -14t15 -35q0 -14 -8 -25 t-8 -17q0 -12 18 -12q30 0 48.5 39t41.5 150q11 54 88 392h-74l9 42h74q35 125 79 181q55 68 147 68q45 0 70.5 -20.5t25.5 -57.5q0 -24 -14 -39t-37 -15q-21 0 -33.5 13.5t-12.5 34.5q0 13 8 24.5t8 17.5q0 13 -18 13q-26 0 -50 -40.5t-42 -113.5z" />
<glyph unicode="&#xfb01;" horiz-adv-x="556" d="M492 140l22 -13q-50 -78 -86 -107t-81 -29q-34 0 -52.5 17.5t-18.5 48.5q0 28 15 84l70 266h-150l-94 -385q-10 -39 -32 -85t-45 -75q-53 -67 -131 -67q-42 0 -69.5 22t-27.5 56q0 24 13.5 39.5t35.5 15.5t36.5 -14t14.5 -36q0 -13 -9.5 -23.5t-9.5 -15.5q0 -10 17 -10 q33 0 51 35t42 142l89 401h-75l10 42h76q32 96 51 132.5t60 69.5q64 52 151 52q65 0 103.5 -26t38.5 -69q0 -26 -16 -42t-41 -16t-41.5 16.5t-16.5 39.5q0 16 11 30t11 20q0 17 -26 17q-59 0 -90 -37q-24 -29 -39.5 -66t-37.5 -121h117q6 0 22 1t54 4t80 5l-75 -280 q-20 -77 -20 -102q0 -6 5 -11t10 -5q23 0 78 79z" />
<glyph unicode="&#xfb02;" horiz-adv-x="556" d="M553 701l-151 -602q-4 -15 -4 -20q0 -7 5 -12t12 -5q26 0 76 75l20 -11q-51 -79 -85 -107t-78 -28q-32 0 -52 16t-20 42q0 15 5 37l79 321h-147l-76 -314q-35 -144 -92.5 -221t-133.5 -77q-44 0 -70.5 23t-26.5 58q0 25 13.5 39.5t38.5 14.5q21 0 34 -13t13 -34 q0 -13 -8 -23t-8 -17q0 -13 22 -13q26 0 42.5 35.5t43.5 153.5l89 388h-73l10 42h73q28 90 48 131t58 74q58 50 143 50q50 0 101 -15zM372 449l30 119q-21 15 -21 39q0 12 10.5 27t10.5 22t-11 13t-25 6q-48 0 -89 -62q-26 -39 -56 -164h151z" />
<glyph unicode="&#xfb03;" horiz-adv-x="856" d="M792 140l22 -13q-50 -78 -86 -107t-81 -29q-34 0 -52.5 17.5t-18.5 48.5q0 28 15 84l70 266h-150l-94 -385q-10 -39 -32 -85t-45 -75q-53 -67 -131 -67q-42 0 -69.5 22t-27.5 56q0 24 13.5 39.5t35.5 15.5t36.5 -14t14.5 -36q0 -13 -9.5 -23.5t-9.5 -15.5q0 -13 17 -13 q32 0 50.5 36t42.5 144l89 401h-163q-63 -298 -95 -394q-42 -126 -90 -172q-47 -46 -114 -46q-43 0 -71 22t-28 57q0 23 15 39t36 16q20 0 35 -14t15 -35q0 -14 -8 -25t-8 -17q0 -12 18 -12q30 0 48.5 39t41.5 150q11 54 88 392h-74l9 42h74q35 125 79 181q55 68 147 68 q45 0 71 -20.5t26 -57.5q0 -24 -14 -39t-37 -15q-21 0 -34 13.5t-13 34.5q0 13 8 24.5t8 17.5q0 13 -18 13q-26 0 -50 -40.5t-42 -113.5l-16 -66h167q32 96 51 132.5t60 69.5q64 52 151 52q65 0 103.5 -26t38.5 -69q0 -26 -16 -42t-41 -16t-41.5 16.5t-16.5 39.5q0 16 11 30 t11 20q0 17 -26 17q-59 0 -90 -37q-24 -29 -39.5 -66t-37.5 -121h117q6 0 22 1t54 4t80 5l-75 -280q-20 -77 -20 -102q0 -6 5 -11t10 -5q23 0 78 79z" />
<glyph unicode="&#xfb04;" horiz-adv-x="854" d="M851 701l-151 -602q-4 -15 -4 -20q0 -7 5 -12t12 -5q26 0 76 75l20 -11q-51 -79 -85 -107t-78 -28q-32 0 -52 16t-20 42q0 15 5 37l79 321h-147l-76 -314q-35 -144 -92.5 -221t-133.5 -77q-44 0 -70.5 23t-26.5 58q0 25 13.5 39.5t38.5 14.5q21 0 34 -13t13 -34 q0 -13 -8 -23t-8 -17q0 -13 22 -13q26 0 42.5 35.5t43.5 153.5l89 388h-163q-63 -298 -95 -394q-42 -126 -90 -172q-47 -46 -114 -46q-43 0 -71 22t-28 57q0 23 15 39t36 16q20 0 35 -14t15 -35q0 -14 -8 -25t-8 -17q0 -12 18 -12q30 0 48.5 39t41.5 150q11 54 88 392h-74 l9 42h74q35 125 79 181q55 68 147 68q45 0 71 -21t26 -58q0 -24 -14 -39t-37 -15q-21 0 -34 14t-13 35q0 13 8 24.5t8 17.5q0 13 -18 13q-26 0 -50 -40.5t-42 -113.5l-16 -66h166q28 90 48 131t58 74q58 50 143 50q50 0 101 -15zM670 449l30 119q-21 15 -21 39q0 12 10.5 27 t10.5 22t-11 13t-25 6q-48 0 -89 -62q-26 -39 -56 -164h151z" />
<glyph unicode="fj" horiz-adv-x="556" d="M27 449h76q32 96 51 132.5t60 69.5q64 52 151 52q66 0 109 -26.5t43 -68.5q0 -26 -16 -42t-41 -16t-41.5 16.5t-16.5 39.5q0 16 6 30t6 20q0 17 -26 17q-59 0 -90 -37q-24 -29 -39.5 -66t-37.5 -121h117q62 0 178 13l-116 -444q-31 -118 -81 -170.5t-126 -52.5 q-47 0 -76 22t-29 55q0 22 14.5 37.5t34.5 15.5q22 0 36.5 -13.5t14.5 -35.5q0 -11 -8.5 -20t-8.5 -15q0 -15 24 -15q21 0 38.5 30t35.5 104l89 350q12 45 12 67q0 30 -35 30h-124l-94 -385q-10 -39 -32 -85t-45 -75q-53 -67 -131 -67q-42 0 -69.5 22t-27.5 56 q0 24 13.5 39.5t35.5 15.5t36.5 -14t14.5 -36q0 -13 -9.5 -23.5t-9.5 -15.5q0 -10 17 -10q33 0 51 35t42 142l89 401h-75z" />
<glyph unicode=" "  horiz-adv-x="250" />
<glyph unicode="&#x09;" horiz-adv-x="250" />
<glyph unicode="&#xa0;" horiz-adv-x="250" />
<glyph unicode="!" horiz-adv-x="389" d="M196 204l-29 9q44 233 52 353q1 26 4.5 44.5t12 36.5t24 27.5t38.5 9.5q72 0 72 -73q0 -29 -30 -89q-91 -180 -144 -318zM213 58q0 -30 -21.5 -50.5t-52.5 -20.5t-51.5 20t-20.5 51q0 32 21 53.5t52 21.5q29 0 51 -22.5t22 -52.5z" />
<glyph unicode="&#x22;" horiz-adv-x="555" d="M396 398l15 214q2 29 26.5 51t53.5 22q19 0 32 -14.5t13 -34.5q0 -16 -13 -47l-85 -191h-42zM136 398l15 214q2 29 26.5 51t53.5 22q19 0 32 -14.5t13 -34.5q0 -18 -13 -47l-85 -191h-42z" />
<glyph unicode="#" d="M532 490l-20 -73h-96l-54 -134h86l-20 -73h-96l-85 -210h-78l85 210h-113l-85 -210h-78l85 210h-95l20 73h105l54 134h-95l20 73h104l87 210h77l-86 -210h113l87 210h77l-86 -210h87zM338 417h-113l-54 -134h113z" />
<glyph unicode="$" d="M497 598l-42 -134l-21 5q1 11 1 31q0 53 -18.5 81.5t-65.5 43.5l-59 -215q83 -72 111.5 -115t28.5 -97q0 -89 -67.5 -143.5t-186.5 -54.5l-28 -100h-52l29 107q-49 12 -80 28.5t-67 51.5l42 141l22 -6q2 -82 20 -117.5t73 -62.5l74 261q-78 60 -105 99t-27 91 q0 81 55 129t141 48q16 0 38 -2l18 65h50l-20 -72q74 -13 136 -63zM248 436l55 199q-5 2 -15 2q-50 0 -80 -26t-30 -69q0 -30 15 -53t55 -53zM253 274l-67 -242q61 0 99 32.5t38 96.5q0 37 -14.5 61t-55.5 52z" />
<glyph unicode="%" horiz-adv-x="757" d="M707 214q0 -53 -19.5 -104t-53.5 -86q-39 -42 -99 -42q-57 0 -92.5 38.5t-35.5 99.5q0 85 58.5 149t136.5 64q49 0 77 -31.5t28 -87.5zM682 220q0 35 -17 57.5t-42 22.5q-31 0 -62 -46q-24 -36 -40 -87t-16 -91q0 -66 50 -66q44 0 79 51q48 74 48 159zM645 706l-438 -735 h-48l388 655q-56 -42 -113 -42q-28 0 -60 13q3 -29 3 -42q0 -53 -19.5 -105.5t-50.5 -83.5q-44 -44 -101 -44q-56 0 -91 39t-35 100q0 85 59 149t138 64q35 0 71 -29q38 -30 83 -30q49 0 88.5 21.5t77.5 69.5h48zM351 560q0 25 -6 35.5t-26 18.5q-11 5 -21 11q-14 9 -20 9 q-32 0 -67 -74.5t-35 -141.5q0 -66 50 -66q48 0 86.5 64t38.5 144z" />
<glyph unicode="&#x26;" horiz-adv-x="849" d="M745 101l26 -21q-46 -56 -82.5 -77t-85.5 -21q-80 0 -142 62q-83 -63 -198 -63q-87 0 -137 42t-50 119q0 190 240 242q-11 56 -11 92q0 94 52.5 150t136.5 56q62 0 98 -31.5t36 -82.5q0 -54 -44.5 -95.5t-137.5 -76.5q15 -112 86 -227q74 88 74 129q0 17 -12 25t-44 13 v25h212v-25q-38 -3 -62 -25t-105 -129l-38 -49q52 -72 110 -72q38 0 78 40zM548 582q0 32 -13.5 49.5t-38.5 17.5q-33 0 -51.5 -30.5t-18.5 -82.5q0 -34 11 -102q62 33 86.5 67t24.5 81zM433 80q-44 62 -67.5 120.5t-41.5 142.5q-63 -31 -89 -65.5t-26 -87.5q0 -60 35.5 -99 t89.5 -39q53 0 99 28z" />
<glyph unicode="'" horiz-adv-x="278" d="M128 398l16 215q2 34 25 53t54 19q19 0 32 -14.5t13 -34.5q0 -14 -15 -48l-83 -190h-42z" />
<glyph unicode="(" horiz-adv-x="333" d="M326 685l18 -20q-62 -57 -95 -99t-60 -101q-67 -147 -67 -346q0 -90 15 -150.5t56 -132.5l-23 -15q-77 106 -109.5 191.5t-32.5 194.5q0 182 117 321q54 63 181 157z" />
<glyph unicode=")" horiz-adv-x="333" d="M105 670l23 15q74 -101 102 -172q41 -103 41 -214q0 -137 -68 -251q-70 -117 -230 -227l-17 20q68 61 99.5 105t61.5 117q60 146 60 331q0 84 -16.5 146t-55.5 130z" />
<glyph unicode="*" d="M312 468l11 -6q27 -15 41.5 -19t46.5 -4q33 0 57 -12t24 -39q0 -22 -16 -38t-36 -16q-19 0 -31.5 10t-28.5 37q-18 29 -29.5 41.5t-35.5 25.5l-11 6v-12q0 -42 26 -87q17 -29 17 -52t-14 -37t-37 -14t-36.5 14t-13.5 38q0 22 17 51q26 45 26 87v12l-11 -6 q-24 -13 -35.5 -25.5t-29.5 -41.5q-16 -27 -28.5 -37t-31.5 -10q-20 0 -36 16t-16 38q0 27 24 39t57 12q32 0 46.5 4t41.5 19l11 6l-11 6q-26 14 -41 18t-47 5q-33 0 -57 12.5t-24 39.5q0 21 15 37.5t34 16.5q33 0 63 -47q19 -29 31 -42.5t34 -25.5l11 -6v12q0 44 -26 88 q-17 29 -17 51q0 24 13.5 38t36.5 14t37 -14t14 -38q0 -22 -17 -51q-26 -44 -26 -88v-12l11 6q22 12 34 25.5t31 42.5q30 47 63 47q19 0 34 -16.5t15 -37.5q0 -27 -24 -39.5t-57 -12.5q-32 -1 -47 -5t-41 -18z" />
<glyph unicode="+" horiz-adv-x="570" d="M537 209h-208v-209h-88v209h-208v88h208v209h88v-209h208v-88z" />
<glyph unicode="," horiz-adv-x="250" d="M-47 -182l-13 25q118 63 118 116q0 21 -30 37q-40 22 -40 65q0 35 20.5 54t52.5 19q39 0 61 -26t22 -68q0 -67 -51 -125.5t-140 -96.5z" />
<glyph unicode="-" horiz-adv-x="333" d="M271 282l-23 -116h-246l24 116h245z" />
<glyph unicode="." horiz-adv-x="250" d="M139 61q0 -31 -21.5 -52.5t-53.5 -21.5q-31 0 -52 21t-21 52q0 32 21.5 53.5t53.5 21.5q30 0 51.5 -21.5t21.5 -52.5z" />
<glyph unicode="/" horiz-adv-x="278" d="M342 685l-319 -703h-87l319 703h87z" />
<glyph unicode="0" d="M477 442q0 -113 -47.5 -225t-118.5 -176q-61 -55 -134 -55q-77 0 -118.5 59t-41.5 161q0 112 42 220.5t110 186.5q61 70 158 70q71 0 110.5 -65t39.5 -176zM374 582q0 34 -13 53t-36 19q-21 0 -38 -19.5t-38 -63.5q-44 -97 -86.5 -262t-42.5 -228q0 -30 13.5 -48 t36.5 -18q31 0 55.5 33t50.5 111q98 300 98 423z" />
<glyph unicode="1" d="M419 683l-154 -560q-14 -52 -14 -63q0 -21 20.5 -28t78.5 -9v-23h-345v23q58 3 83 19.5t38 62.5l124 445q6 27 6 30q0 33 -48 33q-30 0 -62 -5l2 23q121 16 271 52z" />
<glyph unicode="2" d="M86 507l-22 12q31 76 87.5 120t130.5 44q76 0 120 -47.5t44 -120.5q0 -59 -34.5 -116t-109.5 -121l-196 -167h138q65 0 95.5 15.5t55.5 64.5h24l-80 -191h-366v24l89 92q145 151 197.5 224t52.5 136q0 117 -92 117q-76 0 -134 -86z" />
<glyph unicode="3" d="M117 537l-21 13q82 133 207 133q61 0 104 -39t43 -97q0 -104 -119 -149v-2q43 -32 60 -64.5t17 -81.5q0 -108 -83.5 -185.5t-206.5 -77.5q-61 0 -96.5 21.5t-35.5 58.5q0 26 16 42t43 16q22 0 37.5 -14t30 -38t22.5 -32q14 -14 40 -14q45 0 77.5 49.5t32.5 112.5 q0 71 -36 112q-23 26 -49.5 34.5t-72.5 11.5l4 22q190 40 190 153q0 90 -87 90q-35 0 -60.5 -16t-56.5 -59z" />
<glyph unicode="4" d="M503 683l-119 -435h70l-27 -98h-69l-42 -150h-128l41 150h-244l28 105l427 428h63zM335 528l-282 -280h203z" />
<glyph unicode="5" d="M486 669l-36 -109h-253l-34 -77q82 -15 111 -26t65 -41q73 -62 73 -165q0 -108 -82 -186t-204 -78q-63 0 -100 21.5t-37 57.5q0 26 16.5 42t42.5 16q44 0 71 -54q21 -43 59 -43q48 0 88.5 49.5t40.5 112.5q0 49 -26.5 90t-74.5 65q-47 24 -133 28l131 297h282z" />
<glyph unicode="6" d="M503 679l6 -24q-178 -62 -278 -246q30 13 62 13q71 0 110.5 -44t39.5 -127q0 -116 -71 -191t-175 -75q-83 0 -128.5 54t-45.5 150q0 103 46 196.5t130 163.5q67 56 129.5 82t174.5 48zM319 315q0 35 -15.5 51t-52.5 16q-22 0 -32.5 -8t-22.5 -36q-27 -63 -44 -131 t-17 -112q0 -78 55 -78q36 0 61 39q27 43 47.5 123.5t20.5 135.5z" />
<glyph unicode="7" d="M525 669l-381 -669h-92l332 556h-127q-84 0 -114.5 -14t-58.5 -63h-26l87 190h380z" />
<glyph unicode="8" d="M183 341v4q-42 44 -58 77.5t-16 76.5q0 83 55 133.5t136 50.5q79 0 130 -44q46 -41 46 -99q0 -54 -33 -92.5t-110 -67.5v-4q49 -55 67.5 -95t18.5 -88q0 -94 -64.5 -150t-163.5 -56q-86 0 -137 45.5t-51 120.5q0 64 44 109t136 79zM383 544q0 47 -22 76.5t-55 29.5 q-39 0 -62.5 -26.5t-23.5 -71.5q0 -40 19.5 -74t70.5 -75q43 45 58 74t15 67zM306 140q0 43 -18 79.5t-79 101.5q-58 -37 -83.5 -78t-25.5 -102q0 -57 26 -90.5t70 -33.5q47 0 78.5 35.5t31.5 87.5z" />
<glyph unicode="9" d="M-6 -10l-6 25q184 56 277 244q-32 -14 -61 -14q-68 0 -109.5 46t-41.5 121q0 114 71.5 192.5t174.5 78.5q74 0 118 -44q58 -60 58 -163q0 -109 -57 -212t-155 -172q-58 -41 -114.5 -62.5t-154.5 -39.5zM363 582q0 69 -49 69q-48 0 -79 -63q-23 -47 -40.5 -117.5 t-17.5 -118.5q0 -64 66 -64q32 0 44.5 14.5t32.5 74.5q43 128 43 205z" />
<glyph unicode=":" horiz-adv-x="333" d="M171 61q0 -31 -21.5 -52.5t-53.5 -21.5q-31 0 -52 21t-21 53t21.5 53t53.5 21q30 0 51.5 -22t21.5 -52zM264 385q0 -31 -21.5 -52.5t-53.5 -21.5q-31 0 -52 21t-21 53t21.5 53t53.5 21q30 0 51.5 -22t21.5 -52z" />
<glyph unicode=";" horiz-adv-x="333" d="M264 385q0 -31 -21.5 -52.5t-53.5 -21.5q-31 0 -52 21t-21 53t21.5 53t53.5 21q30 0 51.5 -22t21.5 -52zM-12 -183l-13 25q118 63 118 116q0 21 -30 37q-41 23 -41 65q0 35 21 54t53 19q39 0 61 -26t22 -68q0 -67 -51 -125.5t-140 -96.5z" />
<glyph unicode="&#x3c;" horiz-adv-x="570" d="M539 -12l-508 223v84l508 223v-96l-385 -169l385 -169v-96z" />
<glyph unicode="=" horiz-adv-x="570" d="M537 107h-504v88h504v-88zM537 311h-504v88h504v-88z" />
<glyph unicode="&#x3e;" horiz-adv-x="570" d="M539 211l-508 -223v96l385 169l-385 169v96l508 -223v-84z" />
<glyph unicode="?" d="M227 61q0 -31 -21.5 -52.5t-53.5 -21.5q-31 0 -52 21t-21 53t21.5 53t53.5 21q30 0 51.5 -22t21.5 -52zM196 208l-29 8q7 100 112 209q64 67 64 149q0 37 -18.5 58t-50.5 21q-24 0 -43 -11.5t-19 -26.5q0 -11 14.5 -28t14.5 -39q0 -25 -18 -43.5t-43 -18.5 q-26 0 -43.5 21.5t-17.5 50.5q0 51 52.5 88.5t128.5 37.5q74 0 122 -38.5t48 -105.5q0 -98 -126 -171q-72 -42 -98.5 -72.5t-49.5 -88.5z" />
<glyph unicode="@" horiz-adv-x="939" d="M703 77l13 -35q-116 -60 -231 -60q-156 0 -261.5 102t-105.5 241q0 154 108 257t265 103q144 0 239 -82t95 -216q0 -103 -50.5 -173.5t-136.5 -71.5q-37 0 -64 22t-29 53q-56 -74 -122 -74q-43 0 -69.5 31.5t-26.5 82.5q0 96 56.5 177t144.5 81q27 0 41 -10t31 -42l11 38 h71l-61 -243q-6 -30 -6 -34q0 -21 11 -32.5t30 -11.5q37 0 67 38.5t43 84.5t13 83q0 109 -84.5 184.5t-202.5 75.5q-124 0 -203.5 -91.5t-79.5 -235.5q0 -125 80 -208t207 -83q125 0 207 49zM583 402q0 64 -42 65q-59 1 -98.5 -62t-39.5 -130q0 -39 16 -62t43 -23 q47 0 82 68q39 76 39 144z" />
<glyph unicode="A" horiz-adv-x="667" d="M593 0h-303v25q77 6 77 49q0 3 -2 15l-12 119h-215l-57 -96q-17 -28 -17 -50q0 -37 64 -37v-25h-195l-1 25q26 3 43 19.5t43 56.5l370 582h25l94 -560q11 -62 25 -78.5t61 -19.5v-25zM346 248l-37 243l-148 -243h185z" />
<glyph unicode="B" horiz-adv-x="667" d="M118 669h265q241 0 241 -146q0 -39 -13.5 -67t-44 -47t-57 -29.5t-74.5 -24.5v-1q72 -20 104.5 -55.5t32.5 -92.5q0 -99 -78 -152.5t-217 -53.5h-302v25q36 5 54 22t30 61l119 438q11 39 11 57t-10.5 27.5t-23.5 11.5t-37 2v25zM334 577l-57 -209q5 0 21.5 1.5t21.5 1.5 t18.5 1.5t19 2.5t16 3.5t16.5 5.5l13 6q8 3 14.5 7.5t12.5 10.5q47 44 47 128q0 101 -87 101q-25 0 -35 -10t-21 -50zM269 338l-64 -236q-7 -27 -7 -37q0 -33 57 -33q73 0 121 59q43 52 43 138q0 58 -35 85q-28 21 -115 24z" />
<glyph unicode="C" horiz-adv-x="667" d="M677 685l-51 -235l-32 6q3 20 3 36q0 72 -34.5 115t-96.5 43q-80 0 -145 -73q-61 -69 -98 -165t-37 -203q0 -81 42 -127.5t113 -46.5q61 0 105 28t99 91l31 -22q-42 -58 -78 -85q-86 -65 -199 -65q-122 0 -194.5 69t-72.5 183q0 109 42.5 202t116.5 156q111 93 249 93 q64 0 131 -21q24 -8 38 -8q20 0 38 29h30z" />
<glyph unicode="D" horiz-adv-x="722" d="M94 669h290q141 0 221 -70.5t80 -193.5q0 -82 -31.5 -159t-87.5 -129q-127 -117 -324 -117h-288v25q37 5 53.5 21.5t29.5 62.5l115 422q15 53 15 71t-8.5 26t-30.5 11l-34 5v25zM318 600l-126 -465q-15 -53 -15 -67q0 -34 58 -34q130 0 210 105q93 121 93 318 q0 181 -165 181q-25 0 -37 -8.5t-18 -29.5z" />
<glyph unicode="E" horiz-adv-x="667" d="M653 669l-43 -190l-27 5q-3 60 -9.5 82t-35.5 41q-47 30 -137 30q-32 0 -45 -9t-22 -42l-59 -216q99 0 134.5 18.5t70.5 88.5l28 -4l-74 -274l-28 4q4 25 4 44q0 52 -30 71.5t-114 19.5l-63 -234q-8 -32 -8 -38q0 -34 61 -34q131 0 214 61q28 20 47 42t44 64l25 -5 l-60 -194h-553v25q39 6 54 20.5t28 59.5l119 432q12 44 12 70q0 15 -9 22.5t-32 10.5l-33 4v25h541z" />
<glyph unicode="F" horiz-adv-x="667" d="M660 669l-43 -190l-27 5q0 75 -20 100q-24 30 -59 41.5t-98 11.5q-30 0 -42.5 -9.5t-20.5 -38.5l-61 -219q99 1 133 19t65 88l28 -4l-74 -274l-28 5q4 25 4 44q0 51 -28.5 70t-108.5 20l-55 -206q-15 -56 -15 -63q0 -23 14.5 -32t56.5 -12v-25h-294v25q41 4 55.5 19.5 t26.5 59.5l121 442q10 38 10 61q0 28 -42 33l-31 4v25h533z" />
<glyph unicode="G" horiz-adv-x="722" d="M705 330v-26q-38 -3 -52 -19t-30 -77l-44 -167l-28 -13q-42 -20 -108.5 -33t-125.5 -13q-133 0 -214.5 74t-81.5 200q0 96 43.5 185t119.5 152q112 92 264 92q64 0 124 -21q24 -9 36 -9q27 0 42 30h31l-51 -221l-29 4q-3 82 -24 119q-36 62 -115 62q-96 0 -173 -98 q-51 -67 -81.5 -155.5t-30.5 -179.5q0 -97 42 -146.5t122 -49.5q73 0 94 30l31 104q27 92 27 114q0 16 -12 24q-14 7 -63 12v26h287z" />
<glyph unicode="H" horiz-adv-x="778" d="M799 669v-25q-36 0 -53.5 -16.5t-28.5 -57.5l-111 -408q-22 -84 -22 -96q0 -22 16 -30.5t57 -10.5v-25h-316v25q51 3 70 17.5t32 61.5l62 225h-239l-54 -197q-12 -43 -12 -67q0 -34 71 -40v-25h-295v25q39 5 54 18.5t27 55.5l121 447q11 38 11 58q0 17 -9.5 25t-32.5 11 l-31 4v25h316v-25q-49 -2 -69 -17t-33 -63l-52 -191h239l47 173q10 38 10 61q0 15 -9 22.5t-32 10.5l-31 4v25h297z" />
<glyph unicode="I" horiz-adv-x="389" d="M406 669v-25q-38 -4 -55 -19t-29 -61l-112 -412q-17 -62 -17 -87q0 -21 14.5 -29.5t56.5 -10.5v-25h-296v25q39 5 54 18t29 64l117 429q14 51 14 71q0 28 -42 33l-32 4v25h298z" />
<glyph unicode="J" d="M524 669v-25q-40 -5 -55.5 -19t-29.5 -66l-122 -457q-26 -99 -82 -150t-133 -51q-67 0 -107.5 26.5t-40.5 74.5q0 30 18.5 51t45.5 21t45 -18t18 -47q0 -17 -11.5 -32t-11.5 -22q0 -18 27 -18t43.5 32t44.5 138l114 432q13 51 13 64q0 29 -41 36l-33 5v25h298z" />
<glyph unicode="K" horiz-adv-x="667" d="M702 669v-25q-33 -5 -47.5 -12t-46.5 -36l-216 -199l157 -333q9 -19 22 -27.5t41 -11.5v-25h-280l1 25l26 4q21 3 29.5 8t8.5 15q0 16 -15 49l-111 236l-67 -249q-2 -10 -2 -17q0 -25 13 -34t52 -12v-25h-288v25q36 4 52.5 17t26.5 51l123 453q11 38 11 58q0 17 -9 25 t-32 11l-33 4v25h311v-25q-45 -4 -64.5 -18.5t-29.5 -53.5l-62 -227l197 175q77 68 77 97q0 22 -35 25l-21 2v25h211z" />
<glyph unicode="L" horiz-adv-x="611" d="M590 195l-60 -195h-552v25q40 5 55 20.5t27 57.5l121 443q11 42 11 61q0 15 -9 22t-32 10q-20 4 -34 5v25h318v-25q-50 -3 -69.5 -16.5t-29.5 -53.5l-129 -473q-6 -24 -6 -39q0 -30 72 -30q104 0 178 45q38 23 61.5 48.5t53.5 74.5z" />
<glyph unicode="M" horiz-adv-x="889" d="M917 669v-25q-39 -5 -55 -20t-29 -61l-119 -438q-10 -34 -10 -57q0 -25 14 -34t57 -9v-25h-311v25q50 3 69.5 18.5t31.5 60.5l123 457l-375 -573h-28l-67 559l-101 -369q-20 -71 -20 -92q0 -33 15.5 -44.5t64.5 -16.5v-25h-206v25q40 9 58 36.5t45 120.5l107 369 q11 41 11 58q0 22 -12 28.5t-59 6.5v25h219l54 -480l311 480h212z" />
<glyph unicode="N" horiz-adv-x="722" d="M748 669v-25q-42 -8 -58.5 -32.5t-43.5 -120.5l-143 -506h-28l-257 547l-99 -354q-19 -66 -19 -94q0 -29 17.5 -42t61.5 -17v-25h-206v25q42 8 56 30t45 125l120 407q-15 34 -28.5 43.5t-53.5 13.5v25h193l216 -467l81 289q19 71 19 94q0 59 -81 59v25h208z" />
<glyph unicode="O" horiz-adv-x="722" d="M691 444q0 -95 -49.5 -194.5t-130.5 -171.5q-108 -96 -248 -96q-108 0 -172 62.5t-64 176.5q0 101 51 202.5t135 169.5q114 92 236 92q104 0 173 -66.5t69 -174.5zM547 528q0 60 -27 91.5t-74 31.5q-91 0 -162 -120q-46 -78 -79.5 -189.5t-33.5 -198.5q0 -57 27.5 -92 t74.5 -35q46 0 82 28t75 86q49 72 83 191t34 207z" />
<glyph unicode="P" horiz-adv-x="611" d="M112 669h282q219 0 219 -155q0 -80 -59 -131q-75 -66 -214 -66q-37 0 -81 5l-54 -199q-11 -37 -11 -58q0 -20 15 -29t57 -11v-25h-294v25q40 6 55.5 20.5t28.5 61.5l117 426q13 46 13 74q0 15 -9 22.5t-32 10.5l-33 4v25zM330 584l-61 -229q17 -3 42 -3q46 0 74.5 14.5 t48.5 47.5q33 52 33 136q0 40 -22.5 63.5t-61.5 23.5q-26 0 -35 -9.5t-18 -43.5z" />
<glyph unicode="Q" horiz-adv-x="722" d="M203 -17l2 4l-16 6q-162 58 -162 218q0 110 49.5 211.5t130.5 169.5q112 93 242 93q105 0 173.5 -66t68.5 -167q0 -94 -40.5 -187t-114.5 -164q-67 -65 -124 -89.5t-160 -28.5l-44 -47v-3q101 -5 186 -35q46 -16 85 -16q46 0 79 16.5t76 61.5l21 -19 q-58 -84 -116.5 -116.5t-142.5 -32.5q-55 0 -136 26q-68 21 -104 21q-43 0 -114 -28l-14 24zM547 532q0 53 -28 86t-73 33q-91 0 -162 -119q-45 -76 -79 -195t-34 -201q0 -55 27.5 -87t74.5 -32q94 0 169 137q43 80 74 189.5t31 188.5z" />
<glyph unicode="R" horiz-adv-x="667" d="M110 669h286q227 0 227 -143q0 -92 -96 -151q-31 -19 -96 -32l85 -254q12 -36 28.5 -48t58.5 -16v-25h-202l-107 331h-30l-52 -182q-18 -62 -18 -82q0 -22 14 -30.5t58 -11.5v-25h-294v25q36 4 53 21.5t29 62.5l120 437q10 38 10 61q0 16 -9 24t-33 10l-32 3v25zM330 583 l-57 -220q91 1 127 25q33 20 52.5 62t19.5 92q0 46 -21 70.5t-61 24.5q-25 0 -38 -10.5t-22 -43.5z" />
<glyph unicode="S" horiz-adv-x="556" d="M526 681l-40 -202l-27 4q-9 76 -22 101q-33 66 -116 66q-41 0 -69.5 -29t-28.5 -76q0 -41 22.5 -66.5t84.5 -70.5q80 -58 109 -104t29 -113q0 -63 -29 -110.5t-81 -73.5q-52 -25 -120 -25q-53 0 -122 24q-32 11 -46 11t-21.5 -6.5t-16.5 -28.5h-30l36 225l29 -2 q7 -54 16 -84t32 -55q44 -50 106 -50q56 0 89 34q37 37 37 92q0 43 -25.5 75.5t-89.5 78.5q-66 47 -98 92.5t-32 105.5q0 84 58.5 137.5t145.5 53.5q50 0 91.5 -15t54.5 -15q31 0 44 26h30z" />
<glyph unicode="T" horiz-adv-x="611" d="M650 669l-36 -192l-27 2q0 85 -31.5 120t-106.5 35l-135 -489q-17 -58 -17 -74q0 -46 83 -46v-25h-331v25h15q72 0 91 72l148 537q-79 -2 -130 -34t-88 -109l-25 7l39 171h551z" />
<glyph unicode="U" horiz-adv-x="722" d="M744 669v-25q-32 -6 -44.5 -14t-25.5 -36.5t-32 -96.5l-65 -234q-25 -89 -52.5 -145t-68.5 -89q-59 -47 -166 -47q-101 0 -162 42.5t-61 120.5q0 47 37 189l51 193q15 55 15 78q0 17 -9 25.5t-32 10.5l-32 3v25h311v-25q-46 -2 -64 -16.5t-30 -59.5l-81 -294 q-28 -101 -28 -135q0 -101 122 -101q78 0 123 47q49 51 90 197l57 209q19 70 19 96q0 57 -79 57v25h207z" />
<glyph unicode="V" horiz-adv-x="667" d="M715 669v-25q-39 -8 -62 -44l-390 -618h-32l-76 513q-8 56 -13.5 81.5t-15.5 43t-22.5 21t-37.5 3.5v25h296v-25q-51 -4 -63 -11.5t-12 -33.5q0 -11 2 -23l50 -394l187 297q63 101 63 129q0 31 -41 34l-24 2v25h191z" />
<glyph unicode="W" horiz-adv-x="889" d="M940 669v-24q-32 -5 -48 -19t-40 -63l-282 -581h-29l-59 489l-233 -489h-29l-78 572q-8 54 -19.5 68.5t-58.5 22.5v24h278v-25q-35 -4 -48 -15t-13 -35q0 -14 1 -19l40 -349l149 314q0 60 -12.5 79.5t-57.5 25.5v24h267v-25q-39 -4 -50.5 -14.5t-11.5 -39.5q0 -5 7 -73 l33 -291l155 327q15 33 15 46q0 27 -10.5 34.5t-52.5 10.5v25h187z" />
<glyph unicode="X" horiz-adv-x="667" d="M694 669v-25q-28 -4 -47.5 -16t-51.5 -45l-199 -205l75 -237q21 -66 41.5 -88t73.5 -28v-25h-307v25q42 4 54.5 11t12.5 27q0 30 -37 141l-20 60l-130 -144q-32 -35 -32 -55q0 -34 63 -40v-25h-214v25q10 2 17.5 4t16.5 8l17 11q7 4 19 16l22 20l26 27l30 33l38 42l45 49 l68 74l-83 269q-12 40 -29 50.5t-64 15.5v25h305v-25l-29 -3q-25 -2 -35 -9t-10 -24q0 -21 35 -132l17 -55l94 99q70 74 70 98q0 21 -33 24l-21 2v25h202z" />
<glyph unicode="Y" horiz-adv-x="611" d="M659 669v-25q-27 -4 -46.5 -20t-45.5 -52l-189 -264l-52 -191q-10 -40 -10 -51q0 -22 17 -31.5t62 -9.5v-25h-323v25q52 5 72 18.5t32 59.5l57 208l-87 270q-12 35 -23.5 45t-51.5 18v25h285v-25q-42 -2 -55.5 -9.5t-13.5 -29.5q0 -19 29 -110l46 -143l128 183 q28 40 28 67q0 23 -13 32t-53 10v25h207z" />
<glyph unicode="Z" horiz-adv-x="611" d="M589 640l-434 -605h75q70 0 115.5 11t83.5 39q49 37 97 114l27 -5l-60 -194h-505v29l434 605h-83q-79 0 -133.5 -32t-113.5 -115l-28 4l58 178h467v-29z" />
<glyph unicode="[" horiz-adv-x="333" d="M362 674l-7 -35h-69q-27 0 -34.5 -10t-18.5 -56l-155 -667q-1 -3 -1 -9q0 -21 34 -21h78l-7 -35h-219l199 833h200z" />
<glyph unicode="\" horiz-adv-x="278" d="M279 -18h-84l-196 703h85z" />
<glyph unicode="]" horiz-adv-x="333" d="M343 674l-200 -831h-199l7 35h68q26 0 33 9t18 54l157 667l1 10q0 21 -34 21h-78l7 35h220z" />
<glyph unicode="^" horiz-adv-x="570" d="M503 304h-89l-129 272l-129 -272h-89l178 365h80z" />
<glyph unicode="_" d="M500 -125h-500v50h500v-50z" />
<glyph unicode="`" horiz-adv-x="333" d="M297 516h-46l-132 88q-34 23 -34 48q0 18 13.5 31.5t31.5 13.5q31 0 56 -33z" />
<glyph unicode="a" d="M435 127l21 -15q-78 -126 -156 -126q-29 0 -46 16.5t-17 47.5q0 21 14 69q-42 -71 -80 -101.5t-84 -30.5q-49 0 -78.5 35t-29.5 92q0 117 87 231q89 117 186 117q32 0 49.5 -17t24.5 -55h1l17 59l111 7l-75 -251q-30 -99 -30 -133q0 -15 12 -15t27 14.5t46 55.5zM303 373 q0 20 -10.5 33.5t-26.5 13.5q-52 0 -108 -115q-25 -51 -40.5 -105.5t-15.5 -84.5q0 -57 43 -57q45 0 86 75q29 52 50.5 123.5t21.5 116.5z" />
<glyph unicode="b" d="M284 699l-91 -326q65 89 144 89q47 0 77 -37.5t30 -93.5q0 -135 -97 -239.5t-223 -104.5q-53 0 -95.5 17.5t-42.5 43.5q0 9 20 81l94 327q39 136 39 156q0 30 -46 30h-19v27q123 14 210 30zM319 325q0 69 -41 69q-52 0 -92 -84q-24 -52 -62 -182q-15 -51 -15 -81 q0 -12 8.5 -19.5t22.5 -7.5q55 0 108 78q30 43 50.5 112t20.5 115z" />
<glyph unicode="c" horiz-adv-x="444" d="M318 142l28 -18l-38 -50q-13 -17 -34.5 -37.5t-42.5 -31.5q-35 -18 -83 -18q-70 0 -111.5 39.5t-41.5 111.5q0 134 105 239q83 85 180 85q46 0 79 -25.5t33 -64.5q0 -32 -17 -51.5t-45 -19.5q-25 0 -41.5 15t-16.5 38q0 16 10.5 32t10.5 26q0 7 -7.5 12t-16.5 5 q-26 0 -47.5 -22.5t-45.5 -65.5q-53 -98 -53 -201q0 -43 19.5 -66t53.5 -23q32 0 59 20t63 71z" />
<glyph unicode="d" d="M517 699l-117 -421q-51 -184 -51 -203q0 -5 3.5 -10t7.5 -5q24 0 68 71l22 -16q-79 -126 -150 -126q-28 0 -44 16t-16 45q0 20 11 68q-72 -131 -166 -131q-48 0 -77 32.5t-29 92.5q0 72 37 150t94 132q70 68 138 68q46 0 75 -33l18 64q29 102 29 122q0 28 -41 28h-21v27 q129 10 209 29zM308 371q0 21 -10.5 35t-26.5 14q-57 1 -114 -112q-24 -48 -39 -100.5t-15 -85.5q0 -27 11.5 -45t29.5 -18q45 0 86 74q27 48 52.5 126.5t25.5 111.5z" />
<glyph unicode="e" horiz-adv-x="444" d="M317 143l29 -17q-78 -139 -195 -139q-67 0 -106.5 37.5t-39.5 109.5q0 124 89.5 226t198.5 102q48 0 76.5 -24t28.5 -63q0 -63 -69 -122q-32 -27 -73.5 -42.5t-114.5 -28.5q-6 -30 -6 -49q0 -82 64 -82q32 0 57.5 20t60.5 72zM306 390q0 39 -31 39q-71 0 -127 -215 q68 15 113 64.5t45 111.5z" />
<glyph unicode="f" horiz-adv-x="333" d="M47 449h74q35 125 79 181q55 68 147 68q45 0 72 -21.5t27 -58.5q0 -24 -14 -39t-37 -15q-21 0 -35 14.5t-14 35.5q0 13 8 24.5t8 17.5q0 13 -18 13q-26 0 -50 -40.5t-42 -113.5l-16 -66h91l-9 -42h-89q-63 -298 -95 -394q-42 -126 -90 -172q-47 -46 -114 -46 q-43 0 -71 22t-28 57q0 23 15 39t36 16q20 0 35 -14t15 -35q0 -14 -8 -25t-8 -17q0 -12 18 -12q30 0 48.5 39t41.5 150q11 54 88 392h-74z" />
<glyph unicode="g" d="M477 373h-66q6 -12 6 -42q0 -81 -71 -132q-64 -46 -145 -46q-27 0 -51 8q-10 0 -19 -10t-9 -26q0 -12 15 -23.5t39 -17.5l50 -12q81 -19 115 -47.5t34 -75.5q0 -63 -64.5 -107.5t-172.5 -44.5q-89 0 -139.5 25.5t-50.5 75.5q0 59 40 83t93 26q-62 21 -62 66q0 30 21 53 t75 44q-80 34 -80 110q0 78 62.5 130t155.5 52q75 0 114 -33h110v-56zM300 372q0 59 -45 59q-30 0 -57 -32q-23 -29 -35 -73t-12 -83q0 -59 42 -59q47 0 78 69q29 63 29 119zM266 -100q0 37 -42 58q-17 8 -58.5 21.5t-50.5 14.5q-7 -1 -24.5 -11t-26.5 -19q-29 -28 -29 -55 q0 -35 31.5 -56.5t81.5 -21.5q52 0 85 20.5t33 48.5z" />
<glyph unicode="h" horiz-adv-x="556" d="M476 142l22 -15q-50 -77 -85.5 -106.5t-81.5 -29.5q-30 0 -48 17t-18 47t11 70t50 155l20 59q7 21 7 30q0 21 -20 21q-42 0 -106 -94q-36 -53 -58 -108t-61 -188h-121l152 562q10 37 10 47q0 33 -42 33h-22v27q99 9 209 30l-108 -416q74 105 118 142t95 37q37 0 56.5 -20 t19.5 -55q0 -28 -29 -118l-59 -182q-3 -8 -3 -12q0 -5 5.5 -10.5t11.5 -5.5q17 0 75 83z" />
<glyph unicode="i" horiz-adv-x="278" d="M216 142l22 -14q-48 -79 -85 -108t-83 -29q-68 0 -68 63q0 22 15 76l55 203q8 32 8 45q0 29 -46 29h-14v27q118 9 203 28l-91 -334q-9 -31 -9 -51q0 -16 15 -16q21 0 64 61zM262 616q0 -28 -19.5 -47t-48.5 -19q-28 0 -47 20t-19 49q0 25 20 45t45 20q28 0 48.5 -20 t20.5 -48z" />
<glyph unicode="j" horiz-adv-x="278" d="M239 462l-116 -444q-31 -119 -81 -172t-126 -53q-47 0 -76 22t-29 55q0 22 14.5 37.5t34.5 15.5q22 0 35.5 -13.5t13.5 -35.5q0 -11 -7.5 -20t-7.5 -15q0 -15 24 -15q21 0 38 31t36 105l89 350q12 45 12 67q0 30 -41 30h-22v27q136 12 209 28zM279 617q0 -28 -20 -47.5 t-49 -19.5q-28 0 -47 20t-19 49q0 26 20 46t46 20q28 0 48.5 -20t20.5 -48z" />
<glyph unicode="k" d="M483 449v-25q-37 -5 -61.5 -18.5t-73.5 -57.5l-64 -58q19 -95 33 -145.5t24 -66t22 -15.5q28 0 64 64l22 -11q-32 -68 -65 -96t-73 -28q-47 0 -72.5 46.5t-50.5 176.5l-39 -27l-50 -188h-122l157 566q7 24 7 42q0 20 -7 27t-23 7h-34v27q96 5 209 30l-124 -461 q95 75 130 109.5t35 53.5q0 12 -10.5 16.5t-39.5 6.5v25h206z" />
<glyph unicode="l" horiz-adv-x="278" d="M290 699l-145 -523q-22 -79 -22 -100q0 -15 15 -15q25 0 79 80l22 -14q-52 -80 -87 -108t-82 -28q-30 0 -49 18t-19 45q0 34 34 155l74 259q34 118 34 145q0 30 -42 30q-11 0 -22 -1v27q98 9 210 30z" />
<glyph unicode="m" horiz-adv-x="778" d="M701 135l22 -13q-38 -71 -75.5 -101t-85.5 -30q-67 0 -67 66q0 43 37 151l44 130q7 23 7 30q0 8 -7 14.5t-16 6.5q-47 0 -112 -116q-27 -48 -42.5 -89t-58.5 -184h-120l65 207q45 143 45 160q0 22 -18 22q-25 0 -65 -47q-43 -51 -75 -126t-72 -216h-121l66 232 q36 125 36 150t-38 25h-18v27q130 10 200 27l-63 -199h1q70 108 104 142q58 58 114 58q32 0 49.5 -18t17.5 -49q0 -37 -26 -105q61 99 102.5 135.5t95.5 36.5q35 0 56 -20t21 -51q0 -43 -23 -109l-45 -128q-21 -60 -21 -77q0 -18 16 -18q22 0 58 58q6 11 12 18z" />
<glyph unicode="n" horiz-adv-x="556" d="M472 135l22 -13q-41 -72 -77.5 -101.5t-82.5 -29.5q-68 0 -68 60q0 47 26 125l55 165q7 23 7 28q0 21 -25 21q-13 0 -33 -16.5t-36 -37.5q-47 -62 -79 -135t-66 -201h-121l57 204q45 164 45 179q0 14 -11.5 18.5t-43.5 5.5v27q90 3 199 27l-62 -198h1q51 75 73 103.5 t49 54.5q43 41 100 41q73 0 73 -77q0 -34 -28 -116l-35 -104q-24 -71 -24 -89q0 -17 14 -17q13 0 27 15t44 61z" />
<glyph unicode="o" d="M280 462h4q73 0 115 -41t42 -110t-29 -135.5t-76 -113.5q-75 -75 -175 -75q-73 0 -118.5 38.5t-45.5 109.5q0 73 27 139t73 111q79 77 183 77zM322 372q0 28 -12.5 44.5t-34.5 16.5q-32 0 -60 -31q-43 -48 -71 -144.5t-28 -177.5q0 -64 49 -64q41 0 71 49q36 59 61 149.5 t25 157.5z" />
<glyph unicode="p" d="M177 347h1q41 64 77.5 89.5t80.5 25.5q53 0 81.5 -32.5t28.5 -88.5q0 -138 -85 -246t-192 -108q-38 0 -68 22l-12 -41q-24 -83 -24 -114q0 -18 13.5 -24.5t51.5 -7.5v-27h-250v27q36 0 50 15t28 71l96 380q22 88 22 94q0 14 -10 18.5t-44 6.5v27q51 6 192 28zM321 336 q0 55 -39 55q-40 0 -87 -71q-13 -19 -20 -37t-24 -76q-38 -128 -38 -149q0 -15 11.5 -25.5t27.5 -10.5q30 0 62 30q46 45 76.5 137t30.5 147z" />
<glyph unicode="q" d="M471 449l-129 -461q-36 -131 -36 -138q0 -28 49 -28h17v-27h-268v27q45 0 62 13t30 56l61 207q-60 -111 -154 -111q-49 0 -75.5 34t-26.5 96q0 84 54 178q44 77 102.5 122t115.5 45q40 0 57 -22q10 -13 17 -50l15 59h109zM325 371q0 48 -35 48q-27 0 -58 -35.5t-53 -79.5 q-53 -109 -53 -188q0 -57 39 -57q45 0 88 74q27 47 49.5 121t22.5 117z" />
<glyph unicode="r" horiz-adv-x="389" d="M160 253h1q60 121 95.5 165t75.5 44q26 0 41.5 -18t15.5 -48q0 -31 -16.5 -52t-41.5 -21q-22 0 -37.5 19t-23.5 19q-23 0 -65 -76q-36 -65 -74 -186l-31 -99h-121q102 345 102 382q0 14 -11.5 19.5t-44.5 5.5v27q131 11 200 28z" />
<glyph unicode="s" horiz-adv-x="389" d="M333 461l-23 -154l-27 2q-12 63 -33 91.5t-55 28.5q-24 0 -38.5 -14.5t-14.5 -38.5q0 -33 57 -99q80 -93 80 -162q0 -56 -43 -92t-105 -36q-35 0 -64 12q-21 8 -30 8q-20 0 -29 -20h-27l22 166l27 -3q17 -133 93 -133q29 0 44.5 14.5t15.5 39.5q0 41 -56 104 q-50 56 -65 87.5t-15 73.5q0 59 36.5 92.5t97.5 33.5q33 0 58 -12q21 -10 37 -10q11 0 16 4t12 17h29z" />
<glyph unicode="t" horiz-adv-x="278" d="M281 407h-83l-34 -119q-53 -185 -53 -209q0 -18 16 -18q25 0 76 80l23 -15q-49 -76 -86.5 -105.5t-83.5 -29.5q-67 0 -67 65q0 28 25 115l67 236h-52v35q62 21 103 55t81 97h35l-39 -145h72v-42z" />
<glyph unicode="u" horiz-adv-x="556" d="M471 133l22 -13q-39 -67 -76.5 -98t-82.5 -31q-68 0 -68 60q0 31 26 110h-1q-70 -103 -109.5 -136.5t-88.5 -33.5q-78 0 -78 79q0 27 22 106l37 128q17 62 17 75q0 24 -58 28v27q87 2 210 28l-93 -302q-16 -51 -16 -72q0 -25 24 -25q28 0 70 55q47 61 75.5 125t66.5 206 h118l-78 -266q-25 -88 -25 -103q0 -21 14 -21q24 0 72 74z" />
<glyph unicode="v" horiz-adv-x="444" d="M15 408v27q101 14 156 27q31 -99 31 -334q74 84 100 123.5t26 65.5q0 13 -20 36q-25 28 -25 53q0 23 17 39.5t40 16.5q27 0 44 -20t17 -47q0 -67 -60 -154q-41 -60 -88 -111.5t-142 -142.5h-26q5 91 5 177q0 175 -25 225q-10 19 -50 19z" />
<glyph unicode="w" horiz-adv-x="667" d="M387 462l31 -333q120 140 120 187q0 15 -20 38q-22 25 -22 48q0 29 16.5 44.5t40.5 15.5q25 0 43 -18.5t18 -43.5q0 -131 -272 -413h-27l-23 285q-85 -158 -114 -201l-56 -84h-27v46q0 4 0.5 24.5t0.5 37.5q0 94 -11.5 191.5t-26.5 110.5q-11 10 -43 10v27q110 18 156 28 q33 -123 33 -274l156 274h27z" />
<glyph unicode="x" d="M41 438l165 24q29 -43 47 -138q57 83 89.5 110.5t68.5 27.5q23 0 40.5 -18.5t17.5 -42.5q0 -22 -16.5 -37.5t-39.5 -15.5q-12 0 -29 10t-28 10q-17 0 -42.5 -26t-49.5 -68l32 -157q6 -29 14.5 -41t22.5 -12q13 0 25.5 10.5t41.5 48.5l21 -14q-46 -66 -80.5 -94t-70.5 -28 q-37 0 -58.5 34.5t-38.5 120.5l-24 -39q-44 -72 -69 -94t-62 -22q-28 0 -45.5 16.5t-17.5 42.5q0 24 15.5 40.5t38.5 16.5q16 0 34.5 -11t27.5 -11q14 0 22.5 7.5t24.5 32.5l44 71l-29 152q-7 37 -20 53t-37 16q-16 0 -35 -2v27z" />
<glyph unicode="y" horiz-adv-x="444" d="M239 110h2q52 99 69.5 141t17.5 66q0 13 -25 34q-31 25 -31 54q0 21 16 39t42 18q25 0 43.5 -19t18.5 -45q0 -76 -75.5 -227t-173.5 -270q-41 -50 -87.5 -78t-87.5 -28q-26 0 -44 17.5t-18 42.5q0 22 15.5 39t34.5 17q25 0 51 -18t43 -18q13 0 32 15t35 37q25 35 25 71 q0 50 -50 288q-21 94 -40 113q-8 8 -14.5 10t-25.5 2v27q86 8 150 24q43 -111 66 -274z" />
<glyph unicode="z" horiz-adv-x="389" d="M368 439l-281 -335q52 -23 86 -69q6 -8 19 -32.5t24.5 -38t24.5 -13.5q10 0 16 5t6 12q0 6 -10 18t-10 27q0 21 15 37t35 16q21 0 37 -16t16 -37q0 -45 -31 -68t-79 -23q-59 0 -129 50q-46 33 -74 33q-13 0 -32 -14q-12 -10 -19 -14l-25 22l292 354h-136 q-29 0 -45.5 -13.5t-27.5 -47.5l-27 3l44 154h311v-10z" />
<glyph unicode="{" horiz-adv-x="348" d="M436 686l-3 -12q-61 -11 -92 -39t-46 -85l-45 -171q-16 -63 -47 -89.5t-105 -40.5q57 -15 75 -30t18 -46q0 -38 -29 -130q-30 -99 -30 -140q0 -34 18.5 -52t62.5 -26l-3 -12q-104 2 -143 21.5t-39 69.5q0 56 35 159q26 80 26 116q0 26 -19.5 42t-65.5 28q68 14 96 37.5 t42 78.5l46 179q21 81 74.5 111.5t173.5 30.5z" />
<glyph unicode="|" horiz-adv-x="220" d="M154 -18h-88v703h88v-703z" />
<glyph unicode="}" horiz-adv-x="348" d="M94 674l3 12q70 -1 104.5 -8t53.5 -24q24 -21 24 -56q0 -57 -35 -162q-26 -80 -26 -116q0 -26 19.5 -42t65.5 -28q-67 -15 -95.5 -38.5t-42.5 -77.5l-46 -179q-21 -82 -74 -112t-174 -30l3 12q61 11 92 39t46 85l45 171q16 63 47 89.5t105 40.5q-57 15 -75 30t-18 46 q0 38 28 130q31 107 31 141q0 33 -19 51t-62 26z" />
<glyph unicode="~" horiz-adv-x="570" d="M461 308l55 -48q-34 -48 -61 -66.5t-62 -18.5q-48 0 -105 33q-62 35 -112 35q-22 0 -36.5 -9t-32.5 -33l-53 46q48 84 121 84q27 0 53 -8t83 -33q60 -27 82 -27q33 0 68 45z" />
<glyph unicode="&#xa1;" horiz-adv-x="389" d="M320 423q0 -32 -21 -53.5t-52 -21.5q-29 0 -51 22.5t-22 52.5t21.5 50.5t52.5 20.5t51.5 -20t20.5 -51zM193 275l29 -8q-45 -230 -53 -354q-2 -51 -12 -72q-22 -46 -69 -46q-31 0 -50 20t-19 54q0 19 5.5 35t25.5 53q78 149 143 318z" />
<glyph unicode="&#xa2;" d="M431 576l-45 -127q53 -29 53 -79q0 -29 -18.5 -48.5t-46.5 -19.5q-21 0 -35 11l-92 -261q59 3 118 89l27 -18q-47 -68 -82 -95.5t-85 -37.5l-47 -133h-34l46 130q-71 5 -109.5 44.5t-38.5 106.5q0 121 89.5 222.5t195.5 101.5q10 0 28 -3l41 117h35zM339 413v2 q-2 14 -22 14q-45 0 -86 -73q-27 -48 -44.5 -107t-17.5 -102q0 -64 45 -90z" />
<glyph unicode="&#xa3;" d="M45 370h105q19 93 40 144.5t58 92.5q65 76 153 76q47 0 78 -26t31 -65q0 -29 -17.5 -48.5t-43.5 -19.5q-23 0 -38 14.5t-15 36.5q0 10 4 34q3 11 3 19q0 9 -7 15t-17 6q-45 0 -60 -77l-39 -202h114l-10 -60h-115q-24 -107 -64 -169l-11 -17q82 -32 125 -32q36 0 54.5 13 t35.5 50h25q-15 -75 -45 -114q-42 -53 -106 -53q-58 0 -127 61q-38 -60 -98 -60q-40 0 -65 24t-25 62q0 39 26.5 63t69.5 24q28 0 61 -14q4 36 19 162h-109zM113 90q-33 30 -64 30q-23 0 -37 -13.5t-14 -36.5t15.5 -37t40.5 -14q43 0 59 71z" />
<glyph unicode="&#xa4;" d="M526 48l-58 -58l-96 98q-60 -37 -122 -37t-122 37l-96 -98l-58 58l98 98q-37 56 -37 120q0 65 37 122l-98 98l58 56l96 -96q56 35 122 35t122 -35l96 96l58 -56l-98 -98q37 -59 37 -122q0 -69 -37 -120zM377 264q0 57 -37 96t-90 39t-90 -38.5t-37 -94.5t37 -94.5 t90 -38.5q52 0 89.5 39t37.5 92z" />
<glyph unicode="&#xa5;" d="M628 669v-25q-29 -6 -49 -20.5t-44 -48.5l-166 -233h135l-13 -50h-150l-21 -78h152l-14 -50h-152l-3 -11q-16 -59 -16 -85q0 -25 15.5 -33t65.5 -10v-25h-322v25q57 4 77 17t32 55l19 67h-141l14 50h141l22 78h-142l14 50h125l-79 239q-12 38 -25.5 48t-56.5 15v25h280 v-25q-43 -2 -59 -8.5t-16 -23.5q0 -14 6 -32l80 -236l135 194q26 37 26 60q0 26 -14 35t-56 11v25h200z" />
<glyph unicode="&#xa6;" horiz-adv-x="220" d="M154 426h-88v259h88v-259zM154 -18h-88v259h88v-259z" />
<glyph unicode="&#xa7;" d="M221 419l2 3q-55 61 -55 129q0 59 43 96.5t112 37.5q59 0 97.5 -27.5t38.5 -70.5q0 -26 -16.5 -44t-41.5 -18q-23 0 -39 16.5t-16 38.5q0 17 9 27t18 15.5t9 12.5q0 11 -18 19.5t-41 8.5q-38 0 -61.5 -20.5t-23.5 -52.5q0 -41 69 -122l69 -81q59 -68 59 -144 q0 -58 -33 -90t-84 -32q-14 0 -30 4l-2 -4q59 -74 59 -130t-47.5 -95t-116.5 -39q-61 0 -103 30.5t-42 74.5q0 26 16.5 43.5t41.5 17.5t40.5 -14.5t15.5 -36.5q0 -16 -17.5 -33t-17.5 -30q0 -11 20.5 -20t46.5 -9q38 0 62 21t24 55q0 24 -14.5 47t-69.5 90l-66 80 q-50 61 -50 126q0 61 29 93.5t75 32.5q23 0 49 -6zM364 206q0 50 -62.5 122t-106.5 72q-24 0 -40 -16.5t-16 -41.5q0 -36 29 -76q42 -59 79 -91q31 -27 58 -27q24 0 41.5 17.5t17.5 40.5z" />
<glyph unicode="&#xa8;" horiz-adv-x="333" d="M185 589q0 -26 -19.5 -45t-46.5 -19q-25 0 -44.5 19.5t-19.5 44.5q0 27 19 46.5t45 19.5q27 0 46.5 -19.5t19.5 -46.5zM397 589q0 -26 -19.5 -45t-46.5 -19q-25 0 -44.5 19.5t-19.5 44.5q0 27 19 46.5t45 19.5q27 0 46.5 -19.5t19.5 -46.5z" />
<glyph unicode="&#xa9;" horiz-adv-x="747" d="M544 250l-17 -72q-2 -11 -12 -14q-5 -3 -52 -15q-31 -9 -66 -9q-101 0 -159 52t-58 143q0 92 61.5 147.5t163.5 55.5q50 0 100 -18q22 -9 22 -21v-71h-17q-19 90 -110 90q-64 0 -99.5 -46t-35.5 -130q0 -86 36 -132.5t102 -46.5q43 0 72 20.5t51 66.5h18zM718 334 q0 -150 -100 -251t-249 -101q-140 0 -239.5 102.5t-99.5 247.5q0 148 100 250.5t244 102.5t244 -102t100 -249zM657 334q0 125 -83.5 215t-199.5 90t-199.5 -90t-83.5 -216q0 -124 83 -214.5t196 -90.5q120 0 203.5 89t83.5 217z" />
<glyph unicode="&#xaa;" horiz-adv-x="266" d="M330 680l-46 -140q-22 -66 -22 -89q0 -9 5 -9q11 0 41 36l5 6l13 -9q-54 -76 -97 -76q-18 0 -31 11.5t-13 26.5q0 14 11 51q-28 -49 -52.5 -68.5t-57.5 -19.5q-31 0 -50.5 21t-19.5 55q0 72 59 140.5t121 68.5q37 0 47 -45l11 36zM218 630q0 12 -5.5 20t-14.5 8 q-26 1 -65 -67.5t-39 -117.5q0 -11 7 -19.5t17 -8.5q31 0 64 62q14 28 25 65t11 58z" />
<glyph unicode="&#xab;" d="M197 226l170 124q30 21 47 37q28 28 41 28q5 0 9 -3.5t4 -8.5q0 -30 -101 -134q-6 -6 -20 -22t-25 -27l40 -83q33 -69 33 -90q0 -15 -15 -15q-6 0 -15 10q-30 34 -168 175v9zM12 226l170 124q30 21 47 37q28 28 41 28q5 0 9 -3.5t4 -8.5q0 -30 -101 -134q-32 -34 -45 -49 l40 -83q33 -69 33 -90q0 -15 -15 -15q-6 0 -15 10q-30 34 -168 175v9z" />
<glyph unicode="&#xac;" horiz-adv-x="606" d="M555 108h-88v203h-416v88h504v-291z" />
<glyph unicode="&#xad;" horiz-adv-x="333" d="M271 282l-23 -116h-246l24 116h245z" />
<glyph unicode="&#xae;" horiz-adv-x="747" d="M562 151h-70q-14 0 -28.5 17.5t-39.5 63.5q-23 41 -52 85h-44v-101q0 -32 6 -38.5t42 -10.5v-16h-166v16q35 4 41 10.5t6 38.5v247q0 32 -6 38t-41 10v16h183q54 0 85.5 -25.5t31.5 -69.5q0 -74 -81 -104l59 -82q42 -60 74 -84v-11zM328 337h41q68 0 68 91q0 78 -69 78 h-40v-169zM718 334q0 -150 -100 -251t-249 -101q-140 0 -239.5 102.5t-99.5 247.5q0 148 100 250.5t244 102.5t244 -102t100 -249zM657 334q0 125 -83.5 215t-199.5 90t-199.5 -90t-83.5 -216q0 -124 83 -214.5t196 -90.5q120 0 203.5 89t83.5 217z" />
<glyph unicode="&#xaf;" horiz-adv-x="333" d="M393 623l-16 -70h-326l17 70h325z" />
<glyph unicode="&#xb0;" horiz-adv-x="400" d="M369 545q0 -59 -42 -101t-101 -42t-101 42t-42 101t42 101t101 42t101 -42t42 -101zM314 545q0 37 -25.5 62.5t-62.5 25.5t-62.5 -25.5t-25.5 -62.5t25.5 -62.5t62.5 -25.5t62.5 25.5t25.5 62.5z" />
<glyph unicode="&#xb1;" horiz-adv-x="570" d="M537 0h-504v88h504v-88zM537 271h-208v-143h-88v143h-208v88h208v209h88v-209h208v-88z" />
<glyph unicode="&#xb2;" horiz-adv-x="300" d="M79 574l-18 11q53 98 144 98q46 0 77 -28.5t31 -70.5q0 -36 -21 -67.5t-71 -72.5l-125 -101h89q37 0 54 8.5t36 36.5h16l-51 -114h-238v16q119 113 148 145q70 77 70 121q0 31 -15.5 48.5t-43.5 17.5q-39 0 -82 -48z" />
<glyph unicode="&#xb3;" horiz-adv-x="300" d="M103 590l-14 13q57 80 133 80q42 0 70.5 -23.5t28.5 -57.5q0 -28 -14.5 -45t-57.5 -42l-7 -4q29 -20 40.5 -39.5t11.5 -48.5q0 -65 -56 -111.5t-135 -46.5q-86 0 -86 50q0 18 10.5 29.5t26.5 11.5q24 0 43 -28q16 -21 22 -25.5t20 -4.5q30 0 50.5 26.5t20.5 65.5 q0 87 -100 91l2 14q121 22 121 85q0 24 -15 38t-40 14q-38 0 -75 -42z" />
<glyph unicode="&#xb4;" horiz-adv-x="333" d="M139 516l122 131q47 50 70 50q20 0 34 -14t14 -33q0 -14 -8.5 -24t-30.5 -23l-152 -87h-49z" />
<glyph unicode="&#xb5;" horiz-adv-x="576" d="M516 449l-104 -336q-5 -17 -5 -27q0 -14 12 -14q22 0 63 62l22 -16q-54 -77 -88.5 -104t-77.5 -27q-28 0 -45.5 17.5t-17.5 45.5q0 22 11 68q-40 -67 -68.5 -92.5t-63.5 -25.5q-46 0 -62 24q-23 -71 -23 -133q0 -47 -21 -72.5t-58 -25.5q-50 0 -50 66q0 27 29.5 96 t44.5 119l111 375h135l-93 -312q-7 -25 -7 -42q0 -25 19 -25q32 0 79 66.5t72 148.5l51 164h135z" />
<glyph unicode="&#xb6;" horiz-adv-x="617" d="M679 669l-6 -25q-58 0 -72.5 -11t-28.5 -65l-166 -636q-11 -47 -11 -60q0 -34 45 -38l23 -2l-7 -25h-171l217 837h-55l-217 -837h-170l7 25q64 5 78 18q9 9 28 82l85 326q-69 0 -107 33t-38 100q0 57 22 117t54 95q61 66 195 66h295zM264 283l94 361q-49 -12 -74 -29.5 t-47 -55.5q-45 -77 -45 -165q0 -40 19 -70t53 -41z" />
<glyph unicode="&#xb7;" horiz-adv-x="250" d="M199 331q0 -31 -21.5 -52.5t-53.5 -21.5q-31 0 -52 21t-21 53t21.5 53t53.5 21q30 0 51.5 -22t21.5 -52z" />
<glyph unicode="&#xb8;" horiz-adv-x="333" d="M85 5l-45 -67q15 3 26 3q39 0 64.5 -20.5t25.5 -51.5q0 -37 -35.5 -62t-88.5 -25q-51 0 -112 25l22 33q38 -17 67 -17q26 0 41 11t15 30q0 36 -47 36q-14 0 -30 -4l-13 12l66 97h44z" />
<glyph unicode="&#xb9;" horiz-adv-x="300" d="M301 683l-100 -330q-6 -18 -6 -34t11 -21t48 -5v-19h-224v19q42 0 58.5 15t29.5 65q2 8 13 41l26 81l25 83q10 34 9 35q-5 21 -26 21q-4 0 -32 -2l-11 -1l2 21q103 16 177 31z" />
<glyph unicode="&#xba;" horiz-adv-x="300" d="M347 587q0 -74 -57.5 -130.5t-127.5 -56.5q-46 0 -76 25t-30 64q0 75 57.5 135.5t129.5 60.5q47 0 75.5 -27.5t28.5 -70.5zM266 627q0 38 -25 38q-31 1 -60 -48q-17 -30 -30.5 -79.5t-13.5 -82.5q0 -35 28 -35q35 0 65 65q36 78 36 142z" />
<glyph unicode="&#xbb;" d="M283 221l-170 -124q-31 -23 -47 -38q-28 -27 -41 -27t-13 12q0 30 101 134l45 49l-40 83q-33 67 -33 90q0 15 15 15q6 0 15 -10q47 -53 168 -175v-9zM468 221l-170 -124q-31 -23 -47 -38q-29 -27 -41 -27q-13 0 -13 12q0 30 101 134l45 49l-40 83q-33 67 -33 90 q0 15 15 15q6 0 15 -10q47 -53 168 -175v-9z" />
<glyph unicode="&#xbc;" horiz-adv-x="750" d="M721 410l-78 -261h45l-17 -61h-44l-28 -88h-86l27 88h-159l16 67l278 255h46zM609 319l-184 -170h132zM629 683l-435 -697h-58l435 697h58zM278 683l-100 -330q-6 -18 -6 -34t11 -21t48 -5v-19h-224v19q42 0 58 15t30 65q2 8 13 41q60 184 60 199q0 8 -8 14.5t-18 6.5 q-4 0 -32 -2l-11 -1l2 21q103 16 177 31z" />
<glyph unicode="&#xbd;" horiz-adv-x="750" d="M489 300l-18 11q53 98 144 98q46 0 77 -28.5t31 -70.5q0 -36 -21 -67.5t-71 -72.5l-125 -101h89q37 0 54 8.5t36 36.5h16l-51 -114h-238v16q119 113 148 145q70 77 70 121q0 31 -15.5 48.5t-43.5 17.5q-39 0 -82 -48zM614 683l-435 -697h-58l435 697h58zM262 683 l-100 -330q-6 -18 -6 -34t11 -21t48 -5v-19h-224v19q42 0 58 15t30 65q2 8 13 41q60 184 60 199q0 8 -8 14.5t-18 6.5q-4 0 -32 -2l-11 -1l2 21q103 16 177 31z" />
<glyph unicode="&#xbe;" horiz-adv-x="750" d="M726 410l-78 -261h45l-17 -61h-44l-28 -88h-86l27 88h-159l16 67l278 255h46zM614 319l-184 -170h132zM634 683l-435 -697h-58l435 697h58zM93 590l-14 13q57 80 133 80q42 0 70.5 -23.5t28.5 -57.5q0 -28 -14.5 -45t-57.5 -42l-7 -4q29 -20 40.5 -39.5t11.5 -48.5 q0 -65 -56 -111.5t-135 -46.5q-86 0 -86 50q0 18 10.5 29.5t26.5 11.5q24 0 43 -28q16 -21 22 -25.5t20 -4.5q30 0 50.5 26.5t20.5 64.5q0 88 -100 92l2 14q121 22 121 85q0 24 -15 38t-40 14q-38 0 -75 -42z" />
<glyph unicode="&#xbf;" d="M421 418q0 -32 -21.5 -53t-53.5 -21q-30 0 -51.5 22t-21.5 52q0 31 21.5 52.5t53.5 21.5q31 0 52 -21t21 -53zM262 105l-41 -51q-64 -78 -64 -148q0 -37 18.5 -58.5t50.5 -21.5q24 0 43 12t19 26q0 8 -11 22q-18 24 -18 45q0 25 17.5 42.5t43.5 17.5t43.5 -19.5 t17.5 -47.5q0 -56 -49.5 -92.5t-125.5 -36.5q-79 0 -127.5 39.5t-48.5 104.5q0 47 29.5 87.5t96.5 83.5l66 43q29 19 45 42.5t37 75.5l29 -7q-7 -78 -71 -159z" />
<glyph unicode="&#xc0;" horiz-adv-x="667" d="M516 766h-46l-132 88q-34 23 -34 48q0 18 13.5 31.5t31.5 13.5q31 0 56 -33zM593 0h-303v25q77 6 77 49q0 3 -2 15l-12 119h-215l-57 -96q-17 -28 -17 -50q0 -37 64 -37v-25h-195l-1 25q26 3 43 19.5t43 56.5l370 582h25l94 -560q11 -62 25 -78.5t61 -19.5v-25zM346 248 l-37 243l-148 -243h185z" />
<glyph unicode="&#xc1;" horiz-adv-x="667" d="M326 766l122 131q47 50 70 50q20 0 34 -14t14 -33q0 -14 -8.5 -24t-30.5 -23l-152 -87h-49zM593 0h-303v25q77 6 77 49q0 3 -2 15l-12 119h-215l-57 -96q-17 -28 -17 -50q0 -37 64 -37v-25h-195l-1 25q26 3 43 19.5t43 56.5l370 582h25l94 -560q11 -62 25 -78.5t61 -19.5 v-25zM346 248l-37 243l-148 -243h185z" />
<glyph unicode="&#xc2;" horiz-adv-x="667" d="M587 766h-51l-88 95l-131 -95h-57l160 174h81zM593 0h-303v25q77 6 77 49q0 3 -2 15l-12 119h-215l-57 -96q-17 -28 -17 -50q0 -37 64 -37v-25h-195l-1 25q26 3 43 19.5t43 56.5l370 582h25l94 -560q11 -62 25 -78.5t61 -19.5v-25zM346 248l-37 243l-148 -243h185z" />
<glyph unicode="&#xc3;" horiz-adv-x="667" d="M571 905h41q-16 -63 -44 -91t-73 -28q-25 0 -57 13l-59 23q-21 8 -38 8q-31 0 -48 -43h-40q10 54 41.5 86t74.5 32q38 0 97 -26q39 -16 54 -16q17 0 28.5 9t22.5 33zM593 0h-303v25q77 6 77 49q0 3 -2 15l-12 119h-215l-57 -96q-17 -28 -17 -50q0 -37 64 -37v-25h-195 l-1 25q26 3 43 19.5t43 56.5l370 582h25l94 -560q11 -62 25 -78.5t61 -19.5v-25zM346 248l-37 243l-148 -243h185z" />
<glyph unicode="&#xc4;" horiz-adv-x="667" d="M387 839q0 -26 -19.5 -45t-46.5 -19q-25 0 -44.5 19.5t-19.5 44.5q0 27 19 46.5t45 19.5q27 0 46.5 -19.5t19.5 -46.5zM599 839q0 -26 -19.5 -45t-46.5 -19q-25 0 -44.5 19.5t-19.5 44.5q0 27 19 46.5t45 19.5q27 0 46.5 -19.5t19.5 -46.5zM593 0h-303v25q77 6 77 49 q0 3 -2 15l-12 119h-215l-57 -96q-17 -28 -17 -50q0 -37 64 -37v-25h-195l-1 25q26 3 43 19.5t43 56.5l370 582h25l94 -560q11 -62 25 -78.5t61 -19.5v-25zM346 248l-37 243l-148 -243h185z" />
<glyph unicode="&#xc5;" horiz-adv-x="667" d="M546 898q0 -44 -31.5 -75.5t-75.5 -31.5q-48 0 -77 30t-29 78q0 44 31.5 74.5t75.5 30.5q47 0 76.5 -30.5t29.5 -75.5zM498 896q0 25 -17.5 42.5t-42.5 17.5q-23 0 -40 -17.5t-17 -41.5t17 -41t40 -17q25 0 42.5 17t17.5 40zM593 0h-303v25q77 6 77 49q0 3 -2 15l-12 119 h-215l-57 -96q-17 -28 -17 -50q0 -37 64 -37v-25h-195l-1 25q26 3 43 19.5t43 56.5l370 582h25l94 -560q11 -62 25 -78.5t61 -19.5v-25zM346 248l-37 243l-148 -243h185z" />
<glyph unicode="&#xc6;" horiz-adv-x="944" d="M918 669l-45 -190l-24 5l-2 40q-6 113 -162 113q-32 0 -43 -6t-16 -26l-65 -235h19q76 0 110.5 20.5t64.5 85.5l26 -4l-73 -273l-25 5q3 24 3 46q0 50 -24 66.5t-109 21.5l-63 -241q-5 -20 -5 -28q0 -37 68 -37q59 0 97.5 10.5t72.5 36.5q36 27 101 120l26 -3l-59 -196 h-527v25q38 6 53 22.5t28 58.5l43 149h-192l-114 -157q-15 -20 -15 -39q0 -16 14 -23.5t50 -10.5v-25h-195v25q19 2 30 9q9 3 59 68l364 472q20 27 20 44q0 14 -15.5 19.5t-64.5 8.5v23h589zM490 627h-12l-253 -333h173z" />
<glyph unicode="&#xc7;" horiz-adv-x="667" d="M677 685l-51 -234l-32 6q3 19 3 35q0 73 -35 115.5t-96 42.5q-93 0 -168 -100q-51 -66 -81.5 -156.5t-30.5 -184.5q0 -81 41.5 -127.5t108.5 -46.5q48 0 90 18q30 13 52.5 33t66.5 68l31 -22q-42 -58 -78 -85q-86 -65 -194 -65q-42 0 -64 4l-33 -48q15 3 26 3 q39 0 64.5 -20.5t25.5 -51.5q0 -37 -35.5 -62t-88.5 -25q-52 0 -112 25l22 33q37 -17 67 -17q26 0 41 11t15 30q0 36 -47 36q-14 0 -30 -4l-13 12l59 88q-81 27 -125 91t-44 154q0 93 35 177.5t96 146.5q118 120 277 120q64 0 131 -21q24 -8 38 -8q20 0 38 29h30z" />
<glyph unicode="&#xc8;" horiz-adv-x="667" d="M531 766h-46l-132 88q-34 23 -34 48q0 18 13.5 31.5t31.5 13.5q31 0 56 -33zM653 669l-43 -190l-27 5q-3 60 -9.5 82t-35.5 41q-47 30 -137 30q-32 0 -45 -9t-22 -42l-59 -216q99 0 134.5 18.5t70.5 88.5l28 -4l-74 -274l-28 4q4 25 4 44q0 52 -30 71.5t-114 19.5 l-63 -234q-8 -32 -8 -38q0 -34 61 -34q131 0 214 61q28 20 47 42t44 64l25 -5l-60 -194h-553v25q39 6 54 20.5t28 59.5l119 432q12 44 12 70q0 15 -9 22.5t-32 10.5l-33 4v25h541z" />
<glyph unicode="&#xc9;" horiz-adv-x="667" d="M306 766l122 131q47 50 70 50q20 0 34 -14t14 -33q0 -14 -8.5 -24t-30.5 -23l-152 -87h-49zM653 669l-43 -190l-27 5q-3 60 -9.5 82t-35.5 41q-47 30 -137 30q-32 0 -45 -9t-22 -42l-59 -216q99 0 134.5 18.5t70.5 88.5l28 -4l-74 -274l-28 4q4 25 4 44q0 52 -30 71.5 t-114 19.5l-63 -234q-8 -32 -8 -38q0 -34 61 -34q131 0 214 61q28 20 47 42t44 64l25 -5l-60 -194h-553v25q39 6 54 20.5t28 59.5l119 432q12 44 12 70q0 15 -9 22.5t-32 10.5l-33 4v25h541z" />
<glyph unicode="&#xca;" horiz-adv-x="667" d="M586 766h-51l-88 95l-131 -95h-57l160 174h81zM653 669l-43 -190l-27 5q-3 60 -9.5 82t-35.5 41q-47 30 -137 30q-32 0 -45 -9t-22 -42l-59 -216q99 0 134.5 18.5t70.5 88.5l28 -4l-74 -274l-28 4q4 25 4 44q0 52 -30 71.5t-114 19.5l-63 -234q-8 -32 -8 -38 q0 -34 61 -34q131 0 214 61q28 20 47 42t44 64l25 -5l-60 -194h-553v25q39 6 54 20.5t28 59.5l119 432q12 44 12 70q0 15 -9 22.5t-32 10.5l-33 4v25h541z" />
<glyph unicode="&#xcb;" horiz-adv-x="667" d="M389 839q0 -26 -19.5 -45t-46.5 -19q-25 0 -44.5 19.5t-19.5 44.5q0 27 19 46.5t45 19.5q27 0 46.5 -19.5t19.5 -46.5zM601 839q0 -26 -19.5 -45t-46.5 -19q-25 0 -44.5 19.5t-19.5 44.5q0 27 19 46.5t45 19.5q27 0 46.5 -19.5t19.5 -46.5zM653 669l-43 -190l-27 5 q-3 60 -9.5 82t-35.5 41q-47 30 -137 30q-32 0 -45 -9t-22 -42l-59 -216q99 0 134.5 18.5t70.5 88.5l28 -4l-74 -274l-28 4q4 25 4 44q0 52 -30 71.5t-114 19.5l-63 -234q-8 -32 -8 -38q0 -34 61 -34q131 0 214 61q28 20 47 42t44 64l25 -5l-60 -194h-553v25q39 6 54 20.5 t28 59.5l119 432q12 44 12 70q0 15 -9 22.5t-32 10.5l-33 4v25h541z" />
<glyph unicode="&#xcc;" horiz-adv-x="389" d="M404 766h-46l-132 88q-34 23 -34 48q0 18 13.5 31.5t31.5 13.5q31 0 56 -33zM406 669v-25q-38 -4 -55 -19t-29 -61l-112 -412q-17 -62 -17 -87q0 -21 14.5 -29.5t56.5 -10.5v-25h-296v25q39 5 54 18t29 64l117 429q14 51 14 71q0 28 -42 33l-32 4v25h298z" />
<glyph unicode="&#xcd;" horiz-adv-x="389" d="M200 766l122 131q47 50 70 50q20 0 34 -14t14 -33q0 -14 -8.5 -24t-30.5 -23l-152 -87h-49zM406 669v-25q-38 -4 -55 -19t-29 -61l-112 -412q-17 -62 -17 -87q0 -21 14.5 -29.5t56.5 -10.5v-25h-296v25q39 5 54 18t29 64l117 429q14 51 14 71q0 28 -42 33l-32 4v25h298z " />
<glyph unicode="&#xce;" horiz-adv-x="389" d="M469 766h-51l-88 95l-131 -95h-57l160 174h81zM406 669v-25q-38 -4 -55 -19t-29 -61l-112 -412q-17 -62 -17 -87q0 -21 14.5 -29.5t56.5 -10.5v-25h-296v25q39 5 54 18t29 64l117 429q14 51 14 71q0 28 -42 33l-32 4v25h298z" />
<glyph unicode="&#xcf;" horiz-adv-x="389" d="M406 669v-25q-38 -4 -55 -19t-29 -61l-112 -412q-17 -62 -17 -87q0 -21 14.5 -29.5t56.5 -10.5v-25h-296v25q39 5 54 18t29 64l117 429q14 51 14 71q0 28 -42 33l-32 4v25h298zM480 839q0 -26 -19.5 -45t-46.5 -19q-26 0 -45 19.5t-19 44.5q0 27 19 46.5t45 19.5 q27 0 46.5 -19.5t19.5 -46.5zM268 839q0 -26 -19.5 -45t-46.5 -19q-26 0 -45 19.5t-19 44.5q0 27 19 46.5t45 19.5q27 0 46.5 -19.5t19.5 -46.5z" />
<glyph unicode="&#xd0;" horiz-adv-x="722" d="M109 669h290q142 0 221.5 -72.5t79.5 -200.5q0 -171 -126.5 -283.5t-318.5 -112.5h-286v25q36 5 53 19.5t27 52.5l63 232h-102l12 44h102l46 170q12 44 12 59q0 17 -10 25t-32 12l-31 5v25zM260 329l-56 -207q-12 -46 -12 -54q0 -34 54 -34q142 0 223 118q39 58 61.5 140 t22.5 165q0 181 -165 181q-46 0 -55 -38l-61 -227h122l-12 -44h-122z" />
<glyph unicode="&#xd1;" horiz-adv-x="722" d="M619 905h41q-16 -63 -44 -91t-73 -28q-25 0 -57 13l-59 23q-21 8 -38 8q-31 0 -48 -43h-40q10 54 41.5 86t74.5 32q38 0 97 -26q39 -16 54 -16q17 0 28.5 9t22.5 33zM748 669v-25q-42 -8 -58.5 -32.5t-43.5 -120.5l-143 -506h-28l-257 547l-99 -354q-19 -66 -19 -94 q0 -29 17.5 -42t61.5 -17v-25h-206v25q42 8 56 30t45 125l120 407q-15 34 -28.5 43.5t-53.5 13.5v25h193l216 -467l81 289q19 71 19 94q0 59 -81 59v25h208z" />
<glyph unicode="&#xd2;" horiz-adv-x="722" d="M580 766h-46l-132 88q-34 23 -34 48q0 18 13.5 31.5t31.5 13.5q31 0 56 -33zM691 444q0 -95 -49.5 -194.5t-130.5 -171.5q-108 -96 -248 -96q-108 0 -172 62.5t-64 176.5q0 101 51 202.5t135 169.5q114 92 236 92q104 0 173 -66.5t69 -174.5zM547 528q0 60 -27 91.5 t-74 31.5q-91 0 -162 -120q-46 -78 -79.5 -189.5t-33.5 -198.5q0 -57 27.5 -92t74.5 -35q46 0 82 28t75 86q49 72 83 191t34 207z" />
<glyph unicode="&#xd3;" horiz-adv-x="722" d="M355 766l122 131q47 50 70 50q20 0 34 -14t14 -33q0 -14 -8.5 -24t-30.5 -23l-152 -87h-49zM691 444q0 -95 -49.5 -194.5t-130.5 -171.5q-108 -96 -248 -96q-108 0 -172 62.5t-64 176.5q0 101 51 202.5t135 169.5q114 92 236 92q104 0 173 -66.5t69 -174.5zM547 528 q0 60 -27 91.5t-74 31.5q-91 0 -162 -120q-46 -78 -79.5 -189.5t-33.5 -198.5q0 -57 27.5 -92t74.5 -35q46 0 82 28t75 86q49 72 83 191t34 207z" />
<glyph unicode="&#xd4;" horiz-adv-x="722" d="M638 766h-51l-88 95l-131 -95h-57l160 174h81zM691 444q0 -95 -49.5 -194.5t-130.5 -171.5q-108 -96 -248 -96q-108 0 -172 62.5t-64 176.5q0 101 51 202.5t135 169.5q114 92 236 92q104 0 173 -66.5t69 -174.5zM547 528q0 60 -27 91.5t-74 31.5q-91 0 -162 -120 q-46 -78 -79.5 -189.5t-33.5 -198.5q0 -57 27.5 -92t74.5 -35q46 0 82 28t75 86q49 72 83 191t34 207z" />
<glyph unicode="&#xd5;" horiz-adv-x="722" d="M620 905h41q-16 -63 -44 -91t-73 -28q-25 0 -57 13l-59 23q-21 8 -38 8q-31 0 -48 -43h-40q10 54 41.5 86t74.5 32q38 0 97 -26q39 -16 54 -16q17 0 28.5 9t22.5 33zM691 444q0 -95 -49.5 -194.5t-130.5 -171.5q-108 -96 -248 -96q-108 0 -172 62.5t-64 176.5 q0 101 51 202.5t135 169.5q114 92 236 92q104 0 173 -66.5t69 -174.5zM547 528q0 60 -27 91.5t-74 31.5q-91 0 -162 -120q-46 -78 -79.5 -189.5t-33.5 -198.5q0 -57 27.5 -92t74.5 -35q46 0 82 28t75 86q49 72 83 191t34 207z" />
<glyph unicode="&#xd6;" horiz-adv-x="722" d="M439 839q0 -26 -19.5 -45t-46.5 -19q-25 0 -44.5 19.5t-19.5 44.5q0 27 19 46.5t45 19.5q27 0 46.5 -19.5t19.5 -46.5zM651 839q0 -26 -19.5 -45t-46.5 -19q-25 0 -44.5 19.5t-19.5 44.5q0 27 19 46.5t45 19.5q27 0 46.5 -19.5t19.5 -46.5zM691 444q0 -95 -49.5 -194.5 t-130.5 -171.5q-108 -96 -248 -96q-108 0 -172 62.5t-64 176.5q0 101 51 202.5t135 169.5q114 92 236 92q104 0 173 -66.5t69 -174.5zM547 528q0 60 -27 91.5t-74 31.5q-91 0 -162 -120q-46 -78 -79.5 -189.5t-33.5 -198.5q0 -57 27.5 -92t74.5 -35q46 0 82 28t75 86 q49 72 83 191t34 207z" />
<glyph unicode="&#xd7;" horiz-adv-x="570" d="M522 78l-62 -62l-175 176l-175 -176l-62 62l175 175l-175 175l62 62l175 -176l175 176l62 -62l-176 -175z" />
<glyph unicode="&#xd8;" horiz-adv-x="722" d="M633 764l-63 -108q55 -26 88 -82t33 -121q0 -111 -48.5 -207.5t-134.5 -168.5q-114 -95 -240 -95q-45 0 -85 13l-70 -120h-48l79 136q-117 63 -117 201q0 122 58.5 231.5t156.5 175.5t207 66q40 0 82 -13l53 92h49zM182 77l324 553q-27 21 -63 21q-92 0 -165 -130 q-43 -77 -75 -190t-32 -190q0 -33 11 -64zM533 593l-325 -555q28 -22 67 -22q46 0 91.5 38t74.5 97q41 85 73.5 194.5t32.5 181.5q0 30 -14 66z" />
<glyph unicode="&#xd9;" horiz-adv-x="722" d="M578 766h-46l-132 88q-34 23 -34 48q0 18 13.5 31.5t31.5 13.5q31 0 56 -33zM744 669v-25q-32 -6 -44.5 -14t-25.5 -36.5t-32 -96.5l-65 -234q-25 -89 -52.5 -145t-68.5 -89q-59 -47 -166 -47q-101 0 -162 42.5t-61 120.5q0 47 37 189l51 193q15 55 15 78q0 17 -9 25.5 t-32 10.5l-32 3v25h311v-25q-46 -2 -64 -16.5t-30 -59.5l-81 -294q-28 -101 -28 -135q0 -101 122 -101q78 0 123 47q49 51 90 197l57 209q19 70 19 96q0 57 -79 57v25h207z" />
<glyph unicode="&#xda;" horiz-adv-x="722" d="M354 766l122 131q47 50 70 50q20 0 34 -14t14 -33q0 -14 -8.5 -24t-30.5 -23l-152 -87h-49zM744 669v-25q-32 -6 -44.5 -14t-25.5 -36.5t-32 -96.5l-65 -234q-25 -89 -52.5 -145t-68.5 -89q-59 -47 -166 -47q-101 0 -162 42.5t-61 120.5q0 47 37 189l51 193q15 55 15 78 q0 17 -9 25.5t-32 10.5l-32 3v25h311v-25q-46 -2 -64 -16.5t-30 -59.5l-81 -294q-28 -101 -28 -135q0 -101 122 -101q78 0 123 47q49 51 90 197l57 209q19 70 19 96q0 57 -79 57v25h207z" />
<glyph unicode="&#xdb;" horiz-adv-x="722" d="M637 766h-51l-88 95l-131 -95h-57l160 174h81zM744 669v-25q-32 -6 -44.5 -14t-25.5 -36.5t-32 -96.5l-65 -234q-25 -89 -52.5 -145t-68.5 -89q-59 -47 -166 -47q-101 0 -162 42.5t-61 120.5q0 47 37 189l51 193q15 55 15 78q0 17 -9 25.5t-32 10.5l-32 3v25h311v-25 q-46 -2 -64 -16.5t-30 -59.5l-81 -294q-28 -101 -28 -135q0 -101 122 -101q78 0 123 47q49 51 90 197l57 209q19 70 19 96q0 57 -79 57v25h207z" />
<glyph unicode="&#xdc;" horiz-adv-x="722" d="M744 669v-25q-32 -6 -44.5 -14t-25.5 -36.5t-32 -96.5l-65 -234q-25 -89 -52.5 -145t-68.5 -89q-59 -47 -166 -47q-101 0 -162 42.5t-61 120.5q0 47 37 189l51 193q15 55 15 78q0 17 -9 25.5t-32 10.5l-32 3v25h311v-25q-46 -2 -64 -16.5t-30 -59.5l-81 -294 q-28 -101 -28 -135q0 -101 122 -101q78 0 123 47q49 51 90 197l57 209q19 70 19 96q0 57 -79 57v25h207zM648 839q0 -26 -19.5 -45t-46.5 -19q-26 0 -45 19.5t-19 44.5q0 27 19 46.5t45 19.5q27 0 46.5 -19.5t19.5 -46.5zM436 839q0 -26 -19.5 -45t-46.5 -19q-26 0 -45 19.5 t-19 44.5q0 27 19 46.5t45 19.5q27 0 46.5 -19.5t19.5 -46.5z" />
<glyph unicode="&#xdd;" horiz-adv-x="611" d="M357 766l122 131q47 50 70 50q20 0 34 -14t14 -33q0 -14 -8.5 -24t-30.5 -23l-152 -87h-49zM659 669v-25q-27 -4 -46.5 -20t-45.5 -52l-189 -264l-52 -191q-10 -40 -10 -51q0 -22 17 -31.5t62 -9.5v-25h-323v25q52 5 72 18.5t32 59.5l57 208l-87 270q-12 35 -23.5 45 t-51.5 18v25h285v-25q-42 -2 -55.5 -9.5t-13.5 -29.5q0 -19 29 -110l46 -143l128 183q28 40 28 67q0 23 -13 32t-53 10v25h207z" />
<glyph unicode="&#xde;" horiz-adv-x="611" d="M312 534h44q217 0 217 -148q0 -90 -64 -143q-75 -61 -209 -61q-37 0 -81 5l-16 -61q-8 -31 -8 -62q0 -20 14.5 -28.5t56.5 -10.5v-25h-293v25q38 6 54 22t27 55l120 436q12 46 12 69q0 15 -10 22.5t-33 10.5l-31 4v25h295l-1 -25q-40 -6 -53 -17.5t-28 -54.5zM292 451 l-63 -232q34 -2 42 -2q82 0 117 52q17 26 28 67t11 75q0 43 -22 67t-62 24q-25 0 -34 -10.5t-17 -40.5z" />
<glyph unicode="&#xdf;" d="M-16 -20l92 423q66 302 251 302q64 0 105 -34.5t41 -91.5q0 -45 -16 -76t-53 -59q-9 -7 -22.5 -13.5t-21.5 -9.5t-34 -11l-35 -11v-1q68 -11 106 -46.5t38 -96.5q0 -102 -73 -190q-60 -72 -149 -72q-39 0 -71 22l20 35l4 -5q14 -18 45 -18q33 0 61 60q18 39 30.5 103 t12.5 114q0 47 -24 65q-14 10 -52 15l7 37h17q19 0 38.5 13.5t31.5 39.5q29 63 29 140q0 61 -46 61q-34 0 -58 -39t-44 -127l-89 -398q-38 -169 -92.5 -240t-135.5 -71q-45 0 -71 21t-26 56q0 24 14.5 40t37.5 16q22 0 34.5 -12.5t12.5 -33.5q0 -14 -8.5 -24t-8.5 -17 q0 -15 16 -15q35 0 49 34q20 39 37 115z" />
<glyph unicode="&#xe0;" d="M435 127l21 -15q-78 -126 -156 -126q-29 0 -46 16.5t-17 47.5q0 21 14 69q-42 -71 -80 -101.5t-84 -30.5q-49 0 -78.5 35t-29.5 92q0 117 87 231q89 117 186 117q32 0 49.5 -17t24.5 -55h1l17 59l111 7l-75 -251q-30 -99 -30 -133q0 -15 12 -15t27 14.5t46 55.5zM303 373 q0 20 -10.5 33.5t-26.5 13.5q-52 0 -108 -115q-25 -51 -40.5 -105.5t-15.5 -84.5q0 -57 43 -57q45 0 86 75q29 52 50.5 123.5t21.5 116.5zM416 516h-46l-132 88q-34 23 -34 48q0 18 13.5 31.5t31.5 13.5q31 0 56 -33z" />
<glyph unicode="&#xe1;" d="M192 516l122 131q47 50 70 50q20 0 34 -14t14 -33q0 -14 -8.5 -24t-30.5 -23l-152 -87h-49zM435 127l21 -15q-78 -126 -156 -126q-29 0 -46 16.5t-17 47.5q0 21 14 69q-42 -71 -80 -101.5t-84 -30.5q-49 0 -78.5 35t-29.5 92q0 117 87 231q89 117 186 117q32 0 49.5 -17 t24.5 -55h1l17 59l111 7l-75 -251q-30 -99 -30 -133q0 -15 12 -15t27 14.5t46 55.5zM303 373q0 20 -10.5 33.5t-26.5 13.5q-52 0 -108 -115q-25 -51 -40.5 -105.5t-15.5 -84.5q0 -57 43 -57q45 0 86 75q29 52 50.5 123.5t21.5 116.5z" />
<glyph unicode="&#xe2;" d="M475 516h-51l-88 95l-131 -95h-57l160 174h81zM435 127l21 -15q-78 -126 -156 -126q-29 0 -46 16.5t-17 47.5q0 21 14 69q-42 -71 -80 -101.5t-84 -30.5q-49 0 -78.5 35t-29.5 92q0 117 87 231q89 117 186 117q32 0 49.5 -17t24.5 -55h1l17 59l111 7l-75 -251 q-30 -99 -30 -133q0 -15 12 -15t27 14.5t46 55.5zM303 373q0 20 -10.5 33.5t-26.5 13.5q-52 0 -108 -115q-25 -51 -40.5 -105.5t-15.5 -84.5q0 -57 43 -57q45 0 86 75q29 52 50.5 123.5t21.5 116.5z" />
<glyph unicode="&#xe3;" d="M456 655h41q-16 -63 -44 -91t-73 -28q-25 0 -57 13l-59 23q-21 8 -38 8q-31 0 -48 -43h-40q10 54 41.5 86t74.5 32q38 0 97 -26q39 -16 54 -16q17 0 28.5 9t22.5 33zM435 127l21 -15q-78 -126 -156 -126q-29 0 -46 16.5t-17 47.5q0 21 14 69q-42 -71 -80 -101.5 t-84 -30.5q-49 0 -78.5 35t-29.5 92q0 117 87 231q89 117 186 117q32 0 49.5 -17t24.5 -55h1l17 59l111 7l-75 -251q-30 -99 -30 -133q0 -15 12 -15t27 14.5t46 55.5zM303 373q0 20 -10.5 33.5t-26.5 13.5q-52 0 -108 -115q-25 -51 -40.5 -105.5t-15.5 -84.5q0 -57 43 -57 q45 0 86 75q29 52 50.5 123.5t21.5 116.5z" />
<glyph unicode="&#xe4;" d="M273 589q0 -26 -19.5 -45t-46.5 -19q-25 0 -44.5 19.5t-19.5 44.5q0 27 19 46.5t45 19.5q27 0 46.5 -19.5t19.5 -46.5zM485 589q0 -26 -19.5 -45t-46.5 -19q-25 0 -44.5 19.5t-19.5 44.5q0 27 19 46.5t45 19.5q27 0 46.5 -19.5t19.5 -46.5zM435 127l21 -15 q-78 -126 -156 -126q-29 0 -46 16.5t-17 47.5q0 21 14 69q-42 -71 -80 -101.5t-84 -30.5q-49 0 -78.5 35t-29.5 92q0 117 87 231q89 117 186 117q32 0 49.5 -17t24.5 -55h1l17 59l111 7l-75 -251q-30 -99 -30 -133q0 -15 12 -15t27 14.5t46 55.5zM303 373q0 20 -10.5 33.5 t-26.5 13.5q-52 0 -108 -115q-25 -51 -40.5 -105.5t-15.5 -84.5q0 -57 43 -57q45 0 86 75q29 52 50.5 123.5t21.5 116.5z" />
<glyph unicode="&#xe5;" d="M426 650q0 -44 -31.5 -75.5t-75.5 -31.5q-48 0 -77 30t-29 78q0 44 31.5 74.5t75.5 30.5q47 0 76.5 -30.5t29.5 -75.5zM378 648q0 25 -17.5 42.5t-42.5 17.5q-23 0 -40 -17.5t-17 -41.5t17 -41t40 -17q25 0 42.5 17t17.5 40zM435 127l21 -15q-78 -126 -156 -126 q-29 0 -46 16.5t-17 47.5q0 21 14 69q-42 -71 -80 -101.5t-84 -30.5q-49 0 -78.5 35t-29.5 92q0 117 87 231q89 117 186 117q32 0 49.5 -17t24.5 -55h1l17 59l111 7l-75 -251q-30 -99 -30 -133q0 -15 12 -15t27 14.5t46 55.5zM303 373q0 20 -10.5 33.5t-26.5 13.5 q-52 0 -108 -115q-25 -51 -40.5 -105.5t-15.5 -84.5q0 -57 43 -57q45 0 86 75q29 52 50.5 123.5t21.5 116.5z" />
<glyph unicode="&#xe6;" horiz-adv-x="722" d="M473 459l-20 -65q28 36 55.5 50.5t64.5 14.5q47 0 73.5 -23t26.5 -64q0 -64 -61.5 -116t-168.5 -69l-37 -6q-5 -25 -5 -46q0 -40 17.5 -62.5t48.5 -22.5q72 0 124 90l28 -17q-66 -136 -194 -136t-143 131q-42 -70 -82.5 -100t-90.5 -30q-52 0 -83 30t-31 88 q0 66 29.5 135t77.5 124q84 97 168 97q33 0 51 -14.5t31 -51.5l18 58zM418 231l-5 -17q65 8 117.5 60.5t52.5 113.5q0 41 -35 41q-72 0 -130 -198zM333 363q0 25 -13.5 40.5t-34.5 15.5q-43 0 -83 -58t-60.5 -125.5t-20.5 -111.5q0 -66 48 -66q47 0 93 79q30 50 50.5 117 t20.5 109z" />
<glyph unicode="&#xe7;" horiz-adv-x="444" d="M31 -92l60 88q-96 29 -96 142q0 63 27.5 125t73.5 110q39 41 88.5 65t94.5 24q47 0 80 -25.5t33 -65.5q0 -31 -17 -50.5t-45 -19.5q-25 0 -41.5 15t-16.5 38q0 13 10.5 30t10.5 28q0 17 -22 17q-53 0 -96 -87q-24 -48 -38 -108t-14 -94q0 -40 20 -64.5t53 -24.5 q32 0 59 20t63 70l28 -18q-57 -87 -103 -113q-40 -23 -95 -23q-11 0 -18 1l-34 -50q15 3 26 3q39 0 64.5 -20.5t25.5 -51.5q0 -37 -35.5 -62t-88.5 -25q-51 0 -112 25l22 33q37 -17 67 -17q26 0 41 11t15 30q0 36 -47 36q-14 0 -30 -4z" />
<glyph unicode="&#xe8;" horiz-adv-x="444" d="M317 143l29 -17q-78 -139 -195 -139q-67 0 -106.5 37.5t-39.5 109.5q0 124 89.5 226t198.5 102q48 0 76.5 -24t28.5 -63q0 -63 -69 -122q-32 -27 -73.5 -42.5t-114.5 -28.5q-6 -30 -6 -49q0 -82 64 -82q32 0 57.5 20t60.5 72zM306 390q0 39 -31 39q-71 0 -127 -215 q68 15 113 64.5t45 111.5zM388 516h-46l-132 88q-34 23 -34 48q0 18 13.5 31.5t31.5 13.5q31 0 56 -33z" />
<glyph unicode="&#xe9;" horiz-adv-x="444" d="M179 516l122 131q47 50 70 50q20 0 34 -14t14 -33q0 -14 -8.5 -24t-30.5 -23l-152 -87h-49zM317 143l29 -17q-78 -139 -195 -139q-67 0 -106.5 37.5t-39.5 109.5q0 124 89.5 226t198.5 102q48 0 76.5 -24t28.5 -63q0 -63 -69 -122q-32 -27 -73.5 -42.5t-114.5 -28.5 q-6 -30 -6 -49q0 -82 64 -82q32 0 57.5 20t60.5 72zM306 390q0 39 -31 39q-71 0 -127 -215q68 15 113 64.5t45 111.5z" />
<glyph unicode="&#xea;" horiz-adv-x="444" d="M462 516h-51l-88 95l-131 -95h-57l160 174h81zM317 143l29 -17q-78 -139 -195 -139q-67 0 -106.5 37.5t-39.5 109.5q0 124 89.5 226t198.5 102q48 0 76.5 -24t28.5 -63q0 -63 -69 -122q-32 -27 -73.5 -42.5t-114.5 -28.5q-6 -30 -6 -49q0 -82 64 -82q32 0 57.5 20 t60.5 72zM306 390q0 39 -31 39q-71 0 -127 -215q68 15 113 64.5t45 111.5z" />
<glyph unicode="&#xeb;" horiz-adv-x="444" d="M317 143l29 -17q-78 -139 -195 -139q-67 0 -106.5 37.5t-39.5 109.5q0 124 89.5 226t198.5 102q48 0 76.5 -24t28.5 -63q0 -63 -69 -122q-32 -27 -73.5 -42.5t-114.5 -28.5q-6 -30 -6 -49q0 -82 64 -82q32 0 57.5 20t60.5 72zM306 390q0 39 -31 39q-71 0 -127 -215 q68 15 113 64.5t45 111.5zM470 589q0 -26 -19.5 -45t-46.5 -19q-26 0 -45 19.5t-19 44.5q0 27 19 46.5t45 19.5q27 0 46.5 -19.5t19.5 -46.5zM258 589q0 -26 -19.5 -45t-46.5 -19q-26 0 -45 19.5t-19 44.5q0 27 19 46.5t45 19.5q27 0 46.5 -19.5t19.5 -46.5z" />
<glyph unicode="&#xec;" horiz-adv-x="278" d="M216 142l22 -14q-48 -79 -85 -108t-83 -29q-68 0 -68 63q0 22 15 76l55 203q8 32 8 45q0 29 -46 29h-14v27q118 9 203 28l-91 -334q-9 -31 -9 -51q0 -16 15 -16q21 0 64 61zM294 516h-46l-132 88q-34 23 -34 48q0 18 13.5 31.5t31.5 13.5q31 0 56 -33z" />
<glyph unicode="&#xed;" horiz-adv-x="278" d="M216 142l22 -14q-48 -79 -85 -108t-83 -29q-68 0 -68 63q0 22 15 76l55 203q8 32 8 45q0 29 -46 29h-14v27q118 9 203 28l-91 -334q-9 -31 -9 -51q0 -16 15 -16q21 0 64 61zM70 516l122 131q47 50 70 50q20 0 34 -14t14 -33q0 -14 -8.5 -24t-30.5 -23l-152 -87h-49z" />
<glyph unicode="&#xee;" horiz-adv-x="278" d="M353 516h-51l-88 95l-131 -95h-57l160 174h81zM216 142l22 -14q-48 -79 -85 -108t-83 -29q-68 0 -68 63q0 22 15 76l55 203q8 32 8 45q0 29 -46 29h-14v27q118 9 203 28l-91 -334q-9 -31 -9 -51q0 -16 15 -16q21 0 64 61z" />
<glyph unicode="&#xef;" horiz-adv-x="278" d="M216 142l22 -14q-48 -79 -85 -108t-83 -29q-68 0 -68 63q0 22 15 76l55 203q8 32 8 45q0 29 -46 29h-14v27q118 9 203 28l-91 -334q-9 -31 -9 -51q0 -16 15 -16q21 0 64 61zM362 589q0 -26 -19.5 -45t-46.5 -19q-26 0 -45 19.5t-19 44.5q0 27 19 46.5t45 19.5 q27 0 46.5 -19.5t19.5 -46.5zM150 589q0 -26 -19.5 -45t-46.5 -19q-26 0 -45 19.5t-19 44.5q0 27 19 46.5t45 19.5q27 0 46.5 -19.5t19.5 -46.5z" />
<glyph unicode="&#xf0;" d="M454 664l-107 -56q51 -56 72.5 -108t21.5 -120q0 -160 -81.5 -276.5t-204.5 -116.5q-70 0 -114 41.5t-44 105.5q0 130 85 229t190 99q47 0 71 -42l2 4q-6 78 -62 150l-119 -62l-33 31l122 64q-57 55 -117 65l45 27q71 -10 132 -60l107 57zM322 375q0 27 -12.5 42.5 t-33.5 15.5q-41 0 -79.5 -65t-59.5 -145t-21 -137q0 -70 49 -70q60 0 109 129q20 55 34 121t14 109z" />
<glyph unicode="&#xf1;" horiz-adv-x="556" d="M466 655h41q-16 -63 -44 -91t-73 -28q-25 0 -57 13l-59 23q-21 8 -38 8q-31 0 -48 -43h-40q10 54 41.5 86t74.5 32q38 0 97 -26q39 -16 54 -16q17 0 28.5 9t22.5 33zM472 135l22 -13q-41 -72 -77.5 -101.5t-82.5 -29.5q-68 0 -68 60q0 47 26 125l55 165q7 23 7 28 q0 21 -25 21q-13 0 -33 -16.5t-36 -37.5q-47 -62 -79 -135t-66 -201h-121l57 204q45 164 45 179q0 14 -11.5 18.5t-43.5 5.5v27q90 3 199 27l-62 -198h1q51 75 73 103.5t49 54.5q43 41 100 41q73 0 73 -77q0 -34 -28 -116l-35 -104q-24 -71 -24 -89q0 -17 14 -17q13 0 27 15 t44 61z" />
<glyph unicode="&#xf2;" d="M280 462h4q73 0 115 -41t42 -110t-29 -135.5t-76 -113.5q-75 -75 -175 -75q-73 0 -118.5 38.5t-45.5 109.5q0 73 27 139t73 111q79 77 183 77zM322 372q0 28 -12.5 44.5t-34.5 16.5q-32 0 -60 -31q-43 -48 -71 -144.5t-28 -177.5q0 -64 49 -64q41 0 71 49q36 59 61 149.5 t25 157.5zM405 516h-46l-132 88q-34 23 -34 48q0 18 13.5 31.5t31.5 13.5q31 0 56 -33z" />
<glyph unicode="&#xf3;" d="M179 516l122 131q47 50 70 50q20 0 34 -14t14 -33q0 -14 -8.5 -24t-30.5 -23l-152 -87h-49zM280 462h4q73 0 115 -41t42 -110t-29 -135.5t-76 -113.5q-75 -75 -175 -75q-73 0 -118.5 38.5t-45.5 109.5q0 73 27 139t73 111q79 77 183 77zM322 372q0 28 -12.5 44.5 t-34.5 16.5q-32 0 -60 -31q-43 -48 -71 -144.5t-28 -177.5q0 -64 49 -64q41 0 71 49q36 59 61 149.5t25 157.5z" />
<glyph unicode="&#xf4;" d="M462 516h-51l-88 95l-131 -95h-57l160 174h81zM280 462h4q73 0 115 -41t42 -110t-29 -135.5t-76 -113.5q-75 -75 -175 -75q-73 0 -118.5 38.5t-45.5 109.5q0 73 27 139t73 111q79 77 183 77zM322 372q0 28 -12.5 44.5t-34.5 16.5q-32 0 -60 -31q-43 -48 -71 -144.5 t-28 -177.5q0 -64 49 -64q41 0 71 49q36 59 61 149.5t25 157.5z" />
<glyph unicode="&#xf5;" d="M444 655h41q-16 -63 -44 -91t-73 -28q-25 0 -57 13l-59 23q-21 8 -38 8q-31 0 -48 -43h-40q10 54 41.5 86t74.5 32q38 0 97 -26q39 -16 54 -16q17 0 28.5 9t22.5 33zM280 462h4q73 0 115 -41t42 -110t-29 -135.5t-76 -113.5q-75 -75 -175 -75q-73 0 -118.5 38.5 t-45.5 109.5q0 73 27 139t73 111q79 77 183 77zM322 372q0 28 -12.5 44.5t-34.5 16.5q-32 0 -60 -31q-43 -48 -71 -144.5t-28 -177.5q0 -64 49 -64q41 0 71 49q36 59 61 149.5t25 157.5z" />
<glyph unicode="&#xf6;" d="M280 462h4q73 0 115 -41t42 -110t-29 -135.5t-76 -113.5q-75 -75 -175 -75q-73 0 -118.5 38.5t-45.5 109.5q0 73 27 139t73 111q79 77 183 77zM322 372q0 28 -12.5 44.5t-34.5 16.5q-32 0 -60 -31q-43 -48 -71 -144.5t-28 -177.5q0 -64 49 -64q41 0 71 49q36 59 61 149.5 t25 157.5zM470 589q0 -26 -19.5 -45t-46.5 -19q-26 0 -45 19.5t-19 44.5q0 27 19 46.5t45 19.5q27 0 46.5 -19.5t19.5 -46.5zM258 589q0 -26 -19.5 -45t-46.5 -19q-26 0 -45 19.5t-19 44.5q0 27 19 46.5t45 19.5q27 0 46.5 -19.5t19.5 -46.5z" />
<glyph unicode="&#xf7;" horiz-adv-x="570" d="M537 209h-504v88h504v-88zM359 45q0 -31 -21.5 -52.5t-53.5 -21.5q-31 0 -52 21t-21 53t21.5 53t53.5 21q30 0 51.5 -22t21.5 -52zM359 461q0 -31 -21.5 -52.5t-53.5 -21.5q-31 0 -52 21t-21 53t21.5 53t53.5 21q30 0 51.5 -22t21.5 -52z" />
<glyph unicode="&#xf8;" d="M424 560l-65 -116q82 -40 82 -133q0 -127 -86.5 -225.5t-197.5 -98.5q-24 0 -51 8l-64 -114h-40l72 126q-77 44 -77 127q0 128 88.5 228t200.5 100q20 0 42 -6l59 104h37zM116 78l191 341q-14 14 -32 14q-48 0 -86 -68q-27 -49 -50 -136.5t-23 -142.5v-8zM321 377 l-193 -343q14 -18 37 -18q57 0 101 109q22 52 39 127t17 120q0 3 -1 5z" />
<glyph unicode="&#xf9;" horiz-adv-x="556" d="M471 133l22 -13q-39 -67 -76.5 -98t-82.5 -31q-68 0 -68 60q0 31 26 110h-1q-70 -103 -109.5 -136.5t-88.5 -33.5q-78 0 -78 79q0 27 22 106l37 128q17 62 17 75q0 24 -58 28v27q87 2 210 28l-93 -302q-16 -51 -16 -72q0 -25 24 -25q28 0 70 55q47 61 75.5 125t66.5 206 h118l-78 -266q-25 -88 -25 -103q0 -21 14 -21q24 0 72 74zM422 516h-46l-132 88q-34 23 -34 48q0 18 13.5 31.5t31.5 13.5q31 0 56 -33z" />
<glyph unicode="&#xfa;" horiz-adv-x="556" d="M196 516l122 131q47 50 70 50q20 0 34 -14t14 -33q0 -14 -8.5 -24t-30.5 -23l-152 -87h-49zM471 133l22 -13q-39 -67 -76.5 -98t-82.5 -31q-68 0 -68 60q0 31 26 110h-1q-70 -103 -109.5 -136.5t-88.5 -33.5q-78 0 -78 79q0 27 22 106l37 128q17 62 17 75q0 24 -58 28v27 q87 2 210 28l-93 -302q-16 -51 -16 -72q0 -25 24 -25q28 0 70 55q47 61 75.5 125t66.5 206h118l-78 -266q-25 -88 -25 -103q0 -21 14 -21q24 0 72 74z" />
<glyph unicode="&#xfb;" horiz-adv-x="556" d="M481 516h-51l-88 95l-131 -95h-57l160 174h81zM471 133l22 -13q-39 -67 -76.5 -98t-82.5 -31q-68 0 -68 60q0 31 26 110h-1q-70 -103 -109.5 -136.5t-88.5 -33.5q-78 0 -78 79q0 27 22 106l37 128q17 62 17 75q0 24 -58 28v27q87 2 210 28l-93 -302q-16 -51 -16 -72 q0 -25 24 -25q28 0 70 55q47 61 75.5 125t66.5 206h118l-78 -266q-25 -88 -25 -103q0 -21 14 -21q24 0 72 74z" />
<glyph unicode="&#xfc;" horiz-adv-x="556" d="M277 589q0 -26 -19.5 -45t-46.5 -19q-25 0 -44.5 19.5t-19.5 44.5q0 27 19 46.5t45 19.5q27 0 46.5 -19.5t19.5 -46.5zM489 589q0 -26 -19.5 -45t-46.5 -19q-25 0 -44.5 19.5t-19.5 44.5q0 27 19 46.5t45 19.5q27 0 46.5 -19.5t19.5 -46.5zM471 133l22 -13 q-39 -67 -76.5 -98t-82.5 -31q-68 0 -68 60q0 31 26 110h-1q-70 -103 -109.5 -136.5t-88.5 -33.5q-78 0 -78 79q0 27 22 106l37 128q17 62 17 75q0 24 -58 28v27q87 2 210 28l-93 -302q-16 -51 -16 -72q0 -25 24 -25q28 0 70 55q47 61 75.5 125t66.5 206h118l-78 -266 q-25 -88 -25 -103q0 -21 14 -21q24 0 72 74z" />
<glyph unicode="&#xfd;" horiz-adv-x="444" d="M161 516l122 131q47 50 70 50q20 0 34 -14t14 -33q0 -14 -8.5 -24t-30.5 -23l-152 -87h-49zM239 110h2q52 99 69.5 141t17.5 66q0 13 -25 34q-31 25 -31 54q0 21 16 39t42 18q25 0 43.5 -19t18.5 -45q0 -76 -75.5 -227t-173.5 -270q-41 -50 -87.5 -78t-87.5 -28 q-26 0 -44 17.5t-18 42.5q0 22 15.5 39t34.5 17q25 0 51 -18t43 -18q13 0 32 15t35 37q25 35 25 71q0 50 -50 288q-21 94 -40 113q-8 8 -14.5 10t-25.5 2v27q86 8 150 24q43 -111 66 -274z" />
<glyph unicode="&#xfe;" d="M185 359l3 -3q38 57 73 81.5t78 24.5q49 0 78 -33t29 -88q0 -85 -40.5 -167.5t-105.5 -134.5t-131 -52q-25 0 -68 22q-10 -38 -11 -41q-26 -96 -26 -114t13.5 -24.5t51.5 -7.5v-27h-249v27q35 0 50 17t28 68l162 630q17 64 17 75q0 30 -45 30h-18v27q117 13 206 30z M321 334q0 57 -39 57q-20 0 -43.5 -17t-41.5 -46q-18 -27 -46 -121q-38 -128 -38 -149q0 -15 11.5 -25.5t27.5 -10.5q50 0 97 82q29 53 50.5 118t21.5 112z" />
<glyph unicode="&#xff;" horiz-adv-x="444" d="M239 110h2q52 99 69.5 141t17.5 66q0 13 -25 34q-31 25 -31 54q0 21 16 39t42 18q25 0 43.5 -19t18.5 -45q0 -76 -75.5 -227t-173.5 -270q-41 -50 -87.5 -78t-87.5 -28q-26 0 -44 17.5t-18 42.5q0 22 15.5 39t34.5 17q25 0 51 -18t43 -18q13 0 32 15t35 37q25 35 25 71 q0 50 -50 288q-21 94 -40 113q-8 8 -14.5 10t-25.5 2v27q86 8 150 24q43 -111 66 -274zM460 589q0 -26 -19.5 -45t-46.5 -19q-26 0 -45 19.5t-19 44.5q0 27 19 46.5t45 19.5q27 0 46.5 -19.5t19.5 -46.5zM248 589q0 -26 -19.5 -45t-46.5 -19q-26 0 -45 19.5t-19 44.5 q0 27 19 46.5t45 19.5q27 0 46.5 -19.5t19.5 -46.5z" />
<glyph unicode="&#x100;" horiz-adv-x="667" d="M571 793l-16 -70h-326l17 70h325zM593 0h-303v25q77 6 77 49q0 3 -2 15l-12 119h-215l-57 -96q-17 -28 -17 -50q0 -37 64 -37v-25h-195l-1 25q26 3 43 19.5t43 56.5l370 582h25l94 -560q11 -62 25 -78.5t61 -19.5v-25zM346 248l-37 243l-148 -243h185z" />
<glyph unicode="&#x101;" d="M486 586l-16 -70h-326l17 70h325zM435 127l21 -15q-78 -126 -156 -126q-29 0 -46 16.5t-17 47.5q0 21 14 69q-42 -71 -80 -101.5t-84 -30.5q-49 0 -78.5 35t-29.5 92q0 117 87 231q89 117 186 117q32 0 49.5 -17t24.5 -55h1l17 59l111 7l-75 -251q-30 -99 -30 -133 q0 -15 12 -15t27 14.5t46 55.5zM303 373q0 20 -10.5 33.5t-26.5 13.5q-52 0 -108 -115q-25 -51 -40.5 -105.5t-15.5 -84.5q0 -57 43 -57q45 0 86 75q29 52 50.5 123.5t21.5 116.5z" />
<glyph unicode="&#x102;" horiz-adv-x="667" d="M519 885h39q-33 -162 -178 -162q-138 0 -138 149v13h43q8 -90 99 -90q50 0 81 20.5t54 69.5zM593 0h-303v25q77 6 77 49q0 3 -2 15l-12 119h-215l-57 -96q-17 -28 -17 -50q0 -37 64 -37v-25h-195l-1 25q26 3 43 19.5t43 56.5l370 582h25l94 -560q11 -62 25 -78.5 t61 -19.5v-25zM346 248l-37 243l-148 -243h185z" />
<glyph unicode="&#x103;" d="M444 678h39q-33 -162 -178 -162q-138 0 -138 149v13h43q8 -90 99 -90q50 0 81 20.5t54 69.5zM435 127l21 -15q-78 -126 -156 -126q-29 0 -46 16.5t-17 47.5q0 21 14 69q-42 -71 -80 -101.5t-84 -30.5q-49 0 -78.5 35t-29.5 92q0 117 87 231q89 117 186 117q32 0 49.5 -17 t24.5 -55h1l17 59l111 7l-75 -251q-30 -99 -30 -133q0 -15 12 -15t27 14.5t46 55.5zM303 373q0 20 -10.5 33.5t-26.5 13.5q-52 0 -108 -115q-25 -51 -40.5 -105.5t-15.5 -84.5q0 -57 43 -57q45 0 86 75q29 52 50.5 123.5t21.5 116.5z" />
<glyph unicode="&#x104;" horiz-adv-x="667" d="M453 0h-163v25q77 6 77 49q0 3 -2 15l-12 119h-215l-57 -96q-17 -28 -17 -50q0 -37 64 -37v-25h-195l-1 25q26 3 43 19.5t43 56.5l370 582h25l94 -560q11 -62 25 -78.5t61 -19.5v-25h-92q-6 -28 -6 -42q0 -62 61 -62q22 0 48 13l14 7l22 -14q-19 -35 -53 -55t-73 -20 q-47 0 -75 21t-28 60t42 92zM161 248h185l-37 243z" />
<glyph unicode="&#x105;" d="M485 -84l22 -14q-19 -35 -53 -55t-73 -20q-47 0 -75 21t-28 60q0 34 32 79q-4 -1 -10 -1q-29 0 -46 16.5t-17 47.5q0 21 14 69q-42 -71 -80 -101.5t-84 -30.5q-49 0 -78.5 35t-29.5 92q0 117 87 231q89 117 186 117q32 0 49.5 -17t24.5 -55h1l17 59l111 7l-75 -251 q-30 -99 -30 -133q0 -15 12 -15t27 14.5t46 55.5l21 -15q-43 -71 -85 -100q-9 -39 -9 -54q0 -62 61 -62q22 0 48 13zM266 420q-52 0 -108 -115q-25 -51 -40.5 -105.5t-15.5 -84.5q0 -57 43 -57q45 0 86 75q29 52 50.5 123.5t21.5 116.5q0 20 -10.5 33.5t-26.5 13.5z" />
<glyph unicode="&#x106;" horiz-adv-x="667" d="M360 723l122 131q47 50 70 50q20 0 34 -14t14 -33q0 -14 -8.5 -24t-30.5 -23l-152 -87h-49zM677 685l-51 -235l-32 6q3 20 3 36q0 72 -34.5 115t-96.5 43q-80 0 -145 -73q-61 -69 -98 -165t-37 -203q0 -81 42 -127.5t113 -46.5q61 0 105 28t99 91l31 -22q-42 -58 -78 -85 q-86 -65 -199 -65q-122 0 -194.5 69t-72.5 183q0 109 42.5 202t116.5 156q111 93 249 93q64 0 131 -21q24 -8 38 -8q20 0 38 29h30z" />
<glyph unicode="&#x107;" horiz-adv-x="444" d="M139 516l122 131q47 50 70 50q20 0 34 -14t14 -33q0 -14 -8.5 -24t-30.5 -23l-152 -87h-49zM318 142l28 -18l-38 -50q-13 -17 -34.5 -37.5t-42.5 -31.5q-35 -18 -83 -18q-70 0 -111.5 39.5t-41.5 111.5q0 134 105 239q83 85 180 85q46 0 79 -25.5t33 -64.5 q0 -32 -17 -51.5t-45 -19.5q-25 0 -41.5 15t-16.5 38q0 16 10.5 32t10.5 26q0 7 -7.5 12t-16.5 5q-26 0 -47.5 -22.5t-45.5 -65.5q-53 -98 -53 -201q0 -43 19.5 -66t53.5 -23q32 0 59 20t63 71z" />
<glyph unicode="&#x108;" horiz-adv-x="667" d="M624 723h-51l-88 95l-131 -95h-57l160 174h81zM677 685l-51 -235l-32 6q3 20 3 36q0 72 -34.5 115t-96.5 43q-80 0 -145 -73q-61 -69 -98 -165t-37 -203q0 -81 42 -127.5t113 -46.5q61 0 105 28t99 91l31 -22q-42 -58 -78 -85q-86 -65 -199 -65q-122 0 -194.5 69 t-72.5 183q0 109 42.5 202t116.5 156q111 93 249 93q64 0 131 -21q24 -8 38 -8q20 0 38 29h30z" />
<glyph unicode="&#x109;" horiz-adv-x="444" d="M415 516h-51l-88 95l-131 -95h-57l160 174h81zM318 142l28 -18l-38 -50q-13 -17 -34.5 -37.5t-42.5 -31.5q-35 -18 -83 -18q-70 0 -111.5 39.5t-41.5 111.5q0 134 105 239q83 85 180 85q46 0 79 -25.5t33 -64.5q0 -32 -17 -51.5t-45 -19.5q-25 0 -41.5 15t-16.5 38 q0 16 10.5 32t10.5 26q0 7 -7.5 12t-16.5 5q-26 0 -47.5 -22.5t-45.5 -65.5q-53 -98 -53 -201q0 -43 19.5 -66t53.5 -23q32 0 59 20t63 71z" />
<glyph unicode="&#x10a;" horiz-adv-x="667" d="M677 685l-51 -235l-32 6q3 20 3 36q0 72 -34.5 115t-96.5 43q-80 0 -145 -73q-61 -69 -98 -165t-37 -203q0 -81 42 -127.5t113 -46.5q61 0 105 28t99 91l31 -22q-42 -58 -78 -85q-86 -65 -199 -65q-122 0 -194.5 69t-72.5 183q0 109 42.5 202t116.5 156q111 93 249 93 q64 0 131 -21q24 -8 38 -8q20 0 38 29h30zM449 862q27 0 46.5 -19.5t19.5 -46.5q0 -26 -19.5 -45t-46.5 -19q-25 0 -44.5 19t-19.5 45q0 27 19 46.5t45 19.5z" />
<glyph unicode="&#x10b;" horiz-adv-x="444" d="M345 589q0 -26 -19.5 -45t-46.5 -19q-25 0 -44.5 19.5t-19.5 44.5q0 27 19 46.5t45 19.5q27 0 46.5 -19.5t19.5 -46.5zM318 142l28 -18l-38 -50q-13 -17 -34.5 -37.5t-42.5 -31.5q-35 -18 -83 -18q-70 0 -111.5 39.5t-41.5 111.5q0 134 105 239q83 85 180 85 q46 0 79 -25.5t33 -64.5q0 -32 -17 -51.5t-45 -19.5q-25 0 -41.5 15t-16.5 38q0 16 10.5 32t10.5 26q0 7 -7.5 12t-16.5 5q-26 0 -47.5 -22.5t-45.5 -65.5q-53 -98 -53 -201q0 -43 19.5 -66t53.5 -23q32 0 59 20t63 71z" />
<glyph unicode="&#x10c;" horiz-adv-x="667" d="M616 897l-162 -174h-82l-88 174h51l90 -97l134 97h57zM677 685l-51 -235l-32 6q3 20 3 36q0 72 -34.5 115t-96.5 43q-80 0 -145 -73q-61 -69 -98 -165t-37 -203q0 -81 42 -127.5t113 -46.5q61 0 105 28t99 91l31 -22q-42 -58 -78 -85q-86 -65 -199 -65q-122 0 -194.5 69 t-72.5 183q0 109 42.5 202t116.5 156q111 93 249 93q64 0 131 -21q24 -8 38 -8q20 0 38 29h30z" />
<glyph unicode="&#x10d;" horiz-adv-x="444" d="M437 690l-162 -174h-82l-88 174h51l90 -97l134 97h57zM318 142l28 -18l-38 -50q-13 -17 -34.5 -37.5t-42.5 -31.5q-35 -18 -83 -18q-70 0 -111.5 39.5t-41.5 111.5q0 134 105 239q83 85 180 85q46 0 79 -25.5t33 -64.5q0 -32 -17 -51.5t-45 -19.5q-25 0 -41.5 15 t-16.5 38q0 16 10.5 32t10.5 26q0 7 -7.5 12t-16.5 5q-26 0 -47.5 -22.5t-45.5 -65.5q-53 -98 -53 -201q0 -43 19.5 -66t53.5 -23q32 0 59 20t63 71z" />
<glyph unicode="&#x10e;" horiz-adv-x="722" d="M586 897l-162 -174h-82l-88 174h51l90 -97l134 97h57zM94 669h290q141 0 221 -70.5t80 -193.5q0 -82 -31.5 -159t-87.5 -129q-127 -117 -324 -117h-288v25q37 5 53.5 21.5t29.5 62.5l115 422q15 53 15 71t-8.5 26t-30.5 11l-34 5v25zM318 600l-126 -465q-15 -53 -15 -67 q0 -34 58 -34q130 0 210 105q93 121 93 318q0 181 -165 181q-25 0 -37 -8.5t-18 -29.5z" />
<glyph unicode="&#x10f;" horiz-adv-x="658" d="M517 699l-117 -421q-51 -184 -51 -203q0 -5 3.5 -10t7.5 -5q24 0 68 71l22 -16q-79 -126 -150 -126q-28 0 -44 16t-16 45q0 20 11 68q-72 -131 -166 -131q-48 0 -77 32.5t-29 92.5q0 72 37 150t94 132q70 68 138 68q46 0 75 -33l18 64q29 102 29 122q0 28 -41 28h-21v27 q129 10 209 29zM308 371q0 21 -10.5 35t-26.5 14q-57 1 -114 -112q-24 -48 -39 -100.5t-15 -85.5q0 -27 11.5 -45t29.5 -18q45 0 86 74q27 48 52.5 126.5t25.5 111.5zM535 394l-13 25q118 63 118 116q0 21 -30 37q-40 22 -40 65q0 35 20.5 54t52.5 19q39 0 61 -26t22 -68 q0 -67 -51 -125.5t-140 -96.5z" />
<glyph unicode="&#x110;" horiz-adv-x="722" d="M109 669h290q142 0 221.5 -72.5t79.5 -200.5q0 -171 -126.5 -283.5t-318.5 -112.5h-286v25q36 5 53 19.5t27 52.5l63 232h-102l12 44h102l46 170q12 44 12 59q0 17 -10 25t-32 12l-31 5v25zM260 329l-56 -207q-12 -46 -12 -54q0 -34 54 -34q142 0 223 118q39 58 61.5 140 t22.5 165q0 181 -165 181q-46 0 -55 -38l-61 -227h122l-12 -44h-122z" />
<glyph unicode="&#x111;" d="M180 568h181q9 37 9 47q0 28 -41 28h-21v27q129 10 209 29l-37 -131h61l-14 -50h-61l-66 -240q-51 -184 -51 -203q0 -5 3.5 -10t7.5 -5q24 0 68 71l22 -16q-79 -126 -150 -126q-28 0 -44 16t-16 45q0 20 11 68q-72 -131 -166 -131q-48 0 -77 32.5t-29 92.5q0 72 37 150 t94 132q70 68 138 68q46 0 75 -33l25 89h-182zM271 420q-57 1 -114 -112q-24 -48 -39 -100.5t-15 -85.5q0 -27 11.5 -45t29.5 -18q45 0 86 74q27 48 52.5 126.5t25.5 111.5q0 21 -10.5 35t-26.5 14z" />
<glyph unicode="&#x112;" horiz-adv-x="667" d="M601 793l-16 -70h-326l17 70h325zM653 669l-43 -190l-27 5q-3 60 -9.5 82t-35.5 41q-47 30 -137 30q-32 0 -45 -9t-22 -42l-59 -216q99 0 134.5 18.5t70.5 88.5l28 -4l-74 -274l-28 4q4 25 4 44q0 52 -30 71.5t-114 19.5l-63 -234q-8 -32 -8 -38q0 -34 61 -34 q131 0 214 61q28 20 47 42t44 64l25 -5l-60 -194h-553v25q39 6 54 20.5t28 59.5l119 432q12 44 12 70q0 15 -9 22.5t-32 10.5l-33 4v25h541z" />
<glyph unicode="&#x113;" horiz-adv-x="444" d="M431 586l-16 -70h-326l17 70h325zM317 143l29 -17q-78 -139 -195 -139q-67 0 -106.5 37.5t-39.5 109.5q0 124 89.5 226t198.5 102q48 0 76.5 -24t28.5 -63q0 -63 -69 -122q-32 -27 -73.5 -42.5t-114.5 -28.5q-6 -30 -6 -49q0 -82 64 -82q32 0 57.5 20t60.5 72zM306 390 q0 39 -31 39q-71 0 -127 -215q68 15 113 64.5t45 111.5z" />
<glyph unicode="&#x114;" horiz-adv-x="667" d="M569 885h39q-33 -162 -178 -162q-138 0 -138 149v13h43q8 -90 99 -90q50 0 81 20.5t54 69.5zM653 669l-43 -190l-27 5q-3 60 -9.5 82t-35.5 41q-47 30 -137 30q-32 0 -45 -9t-22 -42l-59 -216q99 0 134.5 18.5t70.5 88.5l28 -4l-74 -274l-28 4q4 25 4 44q0 52 -30 71.5 t-114 19.5l-63 -234q-8 -32 -8 -38q0 -34 61 -34q131 0 214 61q28 20 47 42t44 64l25 -5l-60 -194h-553v25q39 6 54 20.5t28 59.5l119 432q12 44 12 70q0 15 -9 22.5t-32 10.5l-33 4v25h541z" />
<glyph unicode="&#x115;" horiz-adv-x="444" d="M439 678h39q-33 -162 -178 -162q-138 0 -138 149v13h43q8 -90 99 -90q50 0 81 20.5t54 69.5zM317 143l29 -17q-78 -139 -195 -139q-67 0 -106.5 37.5t-39.5 109.5q0 124 89.5 226t198.5 102q48 0 76.5 -24t28.5 -63q0 -63 -69 -122q-32 -27 -73.5 -42.5t-114.5 -28.5 q-6 -30 -6 -49q0 -82 64 -82q32 0 57.5 20t60.5 72zM306 390q0 39 -31 39q-71 0 -127 -215q68 15 113 64.5t45 111.5z" />
<glyph unicode="&#x116;" horiz-adv-x="667" d="M653 669l-43 -190l-27 5q-3 60 -9.5 82t-35.5 41q-47 30 -137 30q-32 0 -45 -9t-22 -42l-59 -216q99 0 134.5 18.5t70.5 88.5l28 -4l-74 -274l-28 4q4 25 4 44q0 52 -30 71.5t-114 19.5l-63 -234q-8 -32 -8 -38q0 -34 61 -34q131 0 214 61q28 20 47 42t44 64l25 -5 l-60 -194h-553v25q39 6 54 20.5t28 59.5l119 432q12 44 12 70q0 15 -9 22.5t-32 10.5l-33 4v25h541zM429 862q27 0 46.5 -19.5t19.5 -46.5q0 -26 -19.5 -45t-46.5 -19q-25 0 -44.5 19t-19.5 45q0 27 19 46.5t45 19.5z" />
<glyph unicode="&#x117;" horiz-adv-x="444" d="M355 589q0 -26 -19.5 -45t-46.5 -19q-25 0 -44.5 19.5t-19.5 44.5q0 27 19 46.5t45 19.5q27 0 46.5 -19.5t19.5 -46.5zM317 143l29 -17q-78 -139 -195 -139q-67 0 -106.5 37.5t-39.5 109.5q0 124 89.5 226t198.5 102q48 0 76.5 -24t28.5 -63q0 -63 -69 -122 q-32 -27 -73.5 -42.5t-114.5 -28.5q-6 -30 -6 -49q0 -82 64 -82q32 0 57.5 20t60.5 72zM306 390q0 39 -31 39q-71 0 -127 -215q68 15 113 64.5t45 111.5z" />
<glyph unicode="&#x118;" horiz-adv-x="667" d="M311 0h-338v25q39 6 54 20.5t28 59.5l119 432q12 44 12 70q0 15 -9 22.5t-32 10.5l-33 4v25h541l-43 -190l-27 5q-3 60 -9.5 82t-35.5 41q-47 30 -137 30q-32 0 -45 -9t-22 -42l-59 -216q99 0 134.5 18.5t70.5 88.5l28 -4l-74 -274l-28 4q4 25 4 44q0 52 -30 71.5 t-114 19.5l-63 -234q-8 -32 -8 -38q0 -34 61 -34q131 0 214 61q28 20 47 42t44 64l25 -5l-60 -194h-172q-8 -38 -8 -51q0 -62 61 -62q22 0 48 13l14 7l22 -14q-19 -35 -53 -55t-73 -20q-47 0 -75 21t-28 60q0 24 10.5 45t38.5 56z" />
<glyph unicode="&#x119;" horiz-adv-x="444" d="M153 -13h-2q-67 0 -106.5 37.5t-39.5 109.5q0 124 89.5 226t198.5 102q48 0 76.5 -24t28.5 -63q0 -63 -69 -122q-32 -27 -73.5 -42.5t-114.5 -28.5q-6 -30 -6 -49q0 -82 64 -82q32 0 57.5 20t60.5 72l29 -17q-60 -108 -141 -132q-7 -28 -7 -45q0 -62 61 -62q22 0 48 13 l14 7l22 -14q-19 -35 -53 -55t-73 -20q-47 0 -75 21t-28 60q0 38 39 88zM148 214q68 15 113 64.5t45 111.5q0 39 -31 39q-71 0 -127 -215z" />
<glyph unicode="&#x11a;" horiz-adv-x="667" d="M616 897l-162 -174h-82l-88 174h51l90 -97l134 97h57zM653 669l-43 -190l-27 5q-3 60 -9.5 82t-35.5 41q-47 30 -137 30q-32 0 -45 -9t-22 -42l-59 -216q99 0 134.5 18.5t70.5 88.5l28 -4l-74 -274l-28 4q4 25 4 44q0 52 -30 71.5t-114 19.5l-63 -234q-8 -32 -8 -38 q0 -34 61 -34q131 0 214 61q28 20 47 42t44 64l25 -5l-60 -194h-553v25q39 6 54 20.5t28 59.5l119 432q12 44 12 70q0 15 -9 22.5t-32 10.5l-33 4v25h541z" />
<glyph unicode="&#x11b;" horiz-adv-x="444" d="M486 690l-162 -174h-82l-88 174h51l90 -97l134 97h57zM317 143l29 -17q-78 -139 -195 -139q-67 0 -106.5 37.5t-39.5 109.5q0 124 89.5 226t198.5 102q48 0 76.5 -24t28.5 -63q0 -63 -69 -122q-32 -27 -73.5 -42.5t-114.5 -28.5q-6 -30 -6 -49q0 -82 64 -82q32 0 57.5 20 t60.5 72zM306 390q0 39 -31 39q-71 0 -127 -215q68 15 113 64.5t45 111.5z" />
<glyph unicode="&#x11c;" horiz-adv-x="722" d="M614 723h-51l-88 95l-131 -95h-57l160 174h81zM705 330v-26q-38 -3 -52 -19t-30 -77l-44 -167l-28 -13q-42 -20 -108.5 -33t-125.5 -13q-133 0 -214.5 74t-81.5 200q0 96 43.5 185t119.5 152q112 92 264 92q64 0 124 -21q24 -9 36 -9q27 0 42 30h31l-51 -221l-29 4 q-3 82 -24 119q-36 62 -115 62q-96 0 -173 -98q-51 -67 -81.5 -155.5t-30.5 -179.5q0 -97 42 -146.5t122 -49.5q73 0 94 30l31 104q27 92 27 114q0 16 -12 24q-14 7 -63 12v26h287z" />
<glyph unicode="&#x11d;" d="M454 516h-51l-88 95l-131 -95h-57l160 174h81zM477 373h-66q6 -12 6 -42q0 -81 -71 -132q-64 -46 -145 -46q-27 0 -51 8q-10 0 -19 -10t-9 -26q0 -12 15 -23.5t39 -17.5l50 -12q81 -19 115 -47.5t34 -75.5q0 -63 -64.5 -107.5t-172.5 -44.5q-89 0 -139.5 25.5t-50.5 75.5 q0 59 40 83t93 26q-62 21 -62 66q0 30 21 53t75 44q-80 34 -80 110q0 78 62.5 130t155.5 52q75 0 114 -33h110v-56zM300 372q0 59 -45 59q-30 0 -57 -32q-23 -29 -35 -73t-12 -83q0 -59 42 -59q47 0 78 69q29 63 29 119zM266 -100q0 37 -42 58q-17 8 -58.5 21.5t-50.5 14.5 q-7 -1 -24.5 -11t-26.5 -19q-29 -28 -29 -55q0 -35 31.5 -56.5t81.5 -21.5q52 0 85 20.5t33 48.5z" />
<glyph unicode="&#x11e;" horiz-adv-x="722" d="M579 885h39q-33 -162 -178 -162q-138 0 -138 149v13h43q8 -90 99 -90q50 0 81 20.5t54 69.5zM705 330v-26q-38 -3 -52 -19t-30 -77l-44 -167l-28 -13q-42 -20 -108.5 -33t-125.5 -13q-133 0 -214.5 74t-81.5 200q0 96 43.5 185t119.5 152q112 92 264 92q64 0 124 -21 q24 -9 36 -9q27 0 42 30h31l-51 -221l-29 4q-3 82 -24 119q-36 62 -115 62q-96 0 -173 -98q-51 -67 -81.5 -155.5t-30.5 -179.5q0 -97 42 -146.5t122 -49.5q73 0 94 30l31 104q27 92 27 114q0 16 -12 24q-14 7 -63 12v26h287z" />
<glyph unicode="&#x11f;" d="M429 678h39q-33 -162 -178 -162q-138 0 -138 149v13h43q8 -90 99 -90q50 0 81 20.5t54 69.5zM477 373h-66q6 -12 6 -42q0 -81 -71 -132q-64 -46 -145 -46q-27 0 -51 8q-10 0 -19 -10t-9 -26q0 -12 15 -23.5t39 -17.5l50 -12q81 -19 115 -47.5t34 -75.5 q0 -63 -64.5 -107.5t-172.5 -44.5q-89 0 -139.5 25.5t-50.5 75.5q0 59 40 83t93 26q-62 21 -62 66q0 30 21 53t75 44q-80 34 -80 110q0 78 62.5 130t155.5 52q75 0 114 -33h110v-56zM300 372q0 59 -45 59q-30 0 -57 -32q-23 -29 -35 -73t-12 -83q0 -59 42 -59q47 0 78 69 q29 63 29 119zM266 -100q0 37 -42 58q-17 8 -58.5 21.5t-50.5 14.5q-7 -1 -24.5 -11t-26.5 -19q-29 -28 -29 -55q0 -35 31.5 -56.5t81.5 -21.5q52 0 85 20.5t33 48.5z" />
<glyph unicode="&#x120;" horiz-adv-x="722" d="M705 330v-26q-38 -3 -52 -19t-30 -77l-44 -167l-28 -13q-42 -20 -108.5 -33t-125.5 -13q-133 0 -214.5 74t-81.5 200q0 96 43.5 185t119.5 152q112 92 264 92q64 0 124 -21q24 -9 36 -9q27 0 42 30h31l-51 -221l-29 4q-3 82 -24 119q-36 62 -115 62q-96 0 -173 -98 q-51 -67 -81.5 -155.5t-30.5 -179.5q0 -97 42 -146.5t122 -49.5q73 0 94 30l31 104q27 92 27 114q0 16 -12 24q-14 7 -63 12v26h287zM459 862q27 0 46.5 -19.5t19.5 -46.5q0 -26 -19.5 -45t-46.5 -19q-25 0 -44.5 19t-19.5 45q0 27 19 46.5t45 19.5z" />
<glyph unicode="&#x121;" d="M345 589q0 -26 -19.5 -45t-46.5 -19q-25 0 -44.5 19.5t-19.5 44.5q0 27 19 46.5t45 19.5q27 0 46.5 -19.5t19.5 -46.5zM477 373h-66q6 -12 6 -42q0 -81 -71 -132q-64 -46 -145 -46q-27 0 -51 8q-10 0 -19 -10t-9 -26q0 -12 15 -23.5t39 -17.5l50 -12q81 -19 115 -47.5 t34 -75.5q0 -63 -64.5 -107.5t-172.5 -44.5q-89 0 -139.5 25.5t-50.5 75.5q0 59 40 83t93 26q-62 21 -62 66q0 30 21 53t75 44q-80 34 -80 110q0 78 62.5 130t155.5 52q75 0 114 -33h110v-56zM300 372q0 59 -45 59q-30 0 -57 -32q-23 -29 -35 -73t-12 -83q0 -59 42 -59 q47 0 78 69q29 63 29 119zM266 -100q0 37 -42 58q-17 8 -58.5 21.5t-50.5 14.5q-7 -1 -24.5 -11t-26.5 -19q-29 -28 -29 -55q0 -35 31.5 -56.5t81.5 -21.5q52 0 85 20.5t33 48.5z" />
<glyph unicode="&#x122;" horiz-adv-x="722" d="M705 330v-26q-38 -3 -52 -19t-30 -77l-44 -167l-28 -13q-42 -20 -108.5 -33t-125.5 -13q-133 0 -214.5 74t-81.5 200q0 96 43.5 185t119.5 152q112 92 264 92q64 0 124 -21q24 -9 36 -9q27 0 42 30h31l-51 -221l-29 4q-3 82 -24 119q-36 62 -115 62q-96 0 -173 -98 q-51 -67 -81.5 -155.5t-30.5 -179.5q0 -97 42 -146.5t122 -49.5q73 0 94 30l31 104q27 92 27 114q0 16 -12 24q-14 7 -63 12v26h287zM171 -359l-13 25q118 63 118 116q0 21 -30 37q-40 23 -40 65q0 32 21 52.5t52 20.5q39 0 61 -26t22 -68q0 -67 -51 -125.5t-140 -96.5z" />
<glyph unicode="&#x123;" d="M477 373h-66q6 -12 6 -42q0 -81 -71 -132q-64 -46 -145 -46q-27 0 -51 8q-10 0 -19 -10t-9 -26q0 -12 15 -23.5t39 -17.5l50 -12q81 -19 115 -47.5t34 -75.5q0 -63 -64.5 -107.5t-172.5 -44.5q-89 0 -139.5 25.5t-50.5 75.5q0 59 40 83t93 26q-62 21 -62 66q0 30 21 53 t75 44q-80 34 -80 110q0 78 62.5 130t155.5 52q75 0 114 -33h110v-56zM300 372q0 59 -45 59q-30 0 -57 -32q-23 -29 -35 -73t-12 -83q0 -59 42 -59q47 0 78 69q29 63 29 119zM266 -100q0 37 -42 58q-17 8 -58.5 21.5t-50.5 14.5q-7 -1 -24.5 -11t-26.5 -19q-29 -28 -29 -55 q0 -35 31.5 -56.5t81.5 -21.5q52 0 85 20.5t33 48.5zM370 832l13 -25q-118 -63 -118 -116q0 -21 30 -37q40 -22 40 -65q0 -35 -20.5 -54t-52.5 -19q-39 0 -61 26t-22 68q0 67 51 125.5t140 96.5z" />
<glyph unicode="&#x124;" horiz-adv-x="778" d="M634 723h-51l-88 95l-131 -95h-57l160 174h81zM799 669v-25q-36 0 -53.5 -16.5t-28.5 -57.5l-111 -408q-22 -84 -22 -96q0 -22 16 -30.5t57 -10.5v-25h-316v25q51 3 70 17.5t32 61.5l62 225h-239l-54 -197q-12 -43 -12 -67q0 -34 71 -40v-25h-295v25q39 5 54 18.5 t27 55.5l121 447q11 38 11 58q0 17 -9.5 25t-32.5 11l-31 4v25h316v-25q-49 -2 -69 -17t-33 -63l-52 -191h239l47 173q10 38 10 61q0 15 -9 22.5t-32 10.5l-31 4v25h297z" />
<glyph unicode="&#x125;" horiz-adv-x="556" d="M494 723h-51l-88 95l-131 -95h-57l160 174h81zM476 142l22 -15q-50 -77 -85.5 -106.5t-81.5 -29.5q-30 0 -48 17t-18 47t11 70t50 155l20 59q7 21 7 30q0 21 -20 21q-42 0 -106 -94q-36 -53 -58 -108t-61 -188h-121l152 562q10 37 10 47q0 33 -42 33h-22v27q99 9 209 30 l-108 -416q74 105 118 142t95 37q37 0 56.5 -20t19.5 -55q0 -28 -29 -118l-59 -182q-3 -8 -3 -12q0 -5 5.5 -10.5t11.5 -5.5q17 0 75 83z" />
<glyph unicode="&#x126;" horiz-adv-x="778" d="M62 496v44h114q13 44 13 64q0 17 -9.5 25t-32.5 11l-31 4v25h316v-25q-49 -2 -68.5 -17t-33.5 -63l-7 -24h239q12 43 12 67q0 15 -9 22.5t-32 10.5l-31 4v25h297v-25q-36 0 -53.5 -16.5t-28.5 -57.5l-8 -30h91v-44h-103l-91 -334q-22 -84 -22 -96q0 -22 16 -30.5 t57 -10.5v-25h-316v25q51 3 70 17.5t32 61.5l62 225h-239l-54 -197q-12 -43 -12 -67q0 -34 71 -40v-25h-295v25q39 5 54 18.5t27 55.5l107 397h-102zM278 373h239l33 123h-239z" />
<glyph unicode="&#x127;" horiz-adv-x="556" d="M65 514l12 44h61q11 39 11 51q0 33 -42 33h-22v27q99 9 209 30l-37 -141h159l-12 -44h-158l-60 -231q74 105 118 142t95 37q37 0 56.5 -20t19.5 -55q0 -28 -29 -118l-59 -182q-3 -8 -3 -12q0 -5 5.5 -10.5t11.5 -5.5q17 0 75 83l22 -15q-50 -77 -85.5 -106.5t-81.5 -29.5 q-30 0 -48 17t-18 47t11 70t50 155l20 59q7 21 7 30q0 21 -20 21q-42 0 -106 -94q-36 -53 -58 -108t-61 -188h-121l139 514h-61z" />
<glyph unicode="&#x128;" horiz-adv-x="389" d="M429 862h41q-16 -63 -44 -91t-73 -28q-25 0 -57 13l-59 23q-21 8 -38 8q-31 0 -48 -43h-40q10 54 41.5 86t74.5 32q38 0 97 -26q39 -16 54 -16q17 0 28.5 9t22.5 33zM406 669v-25q-38 -4 -55 -19t-29 -61l-112 -412q-17 -62 -17 -87q0 -21 14.5 -29.5t56.5 -10.5v-25 h-296v25q39 5 54 18t29 64l117 429q14 51 14 71q0 28 -42 33l-32 4v25h298z" />
<glyph unicode="&#x129;" horiz-adv-x="278" d="M309 655h41q-16 -63 -44 -91t-73 -28q-25 0 -57 13l-59 23q-21 8 -38 8q-31 0 -48 -43h-40q10 54 41.5 86t74.5 32q38 0 97 -26q39 -16 54 -16q17 0 28.5 9t22.5 33zM216 142l22 -14q-48 -79 -85 -108t-83 -29q-68 0 -68 63q0 22 15 76l55 203q8 32 8 45q0 29 -46 29h-14 v27q118 9 203 28l-91 -334q-9 -31 -9 -51q0 -16 15 -16q21 0 64 61z" />
<glyph unicode="&#x12a;" horiz-adv-x="389" d="M451 793l-16 -70h-326l17 70h325zM406 669v-25q-38 -4 -55 -19t-29 -61l-112 -412q-17 -62 -17 -87q0 -21 14.5 -29.5t56.5 -10.5v-25h-296v25q39 5 54 18t29 64l117 429q14 51 14 71q0 28 -42 33l-32 4v25h298z" />
<glyph unicode="&#x12b;" horiz-adv-x="278" d="M216 142l22 -14q-48 -79 -85 -108t-83 -29q-68 0 -68 63q0 22 15 76l55 203q8 32 8 45q0 29 -46 29h-14v27q118 9 203 28l-91 -334q-9 -31 -9 -51q0 -16 15 -16q21 0 64 61zM331 586l-16 -70h-326l17 70h325z" />
<glyph unicode="&#x12c;" horiz-adv-x="389" d="M419 885h39q-33 -162 -178 -162q-138 0 -138 149v13h43q8 -90 99 -90q50 0 81 20.5t54 69.5zM406 669v-25q-38 -4 -55 -19t-29 -61l-112 -412q-17 -62 -17 -87q0 -21 14.5 -29.5t56.5 -10.5v-25h-296v25q39 5 54 18t29 64l117 429q14 51 14 71q0 28 -42 33l-32 4v25h298z " />
<glyph unicode="&#x12d;" horiz-adv-x="278" d="M289 678h39q-33 -162 -178 -162q-138 0 -138 149v13h43q8 -90 99 -90q50 0 81 20.5t54 69.5zM216 142l22 -14q-48 -79 -85 -108t-83 -29q-68 0 -68 63q0 22 15 76l55 203q8 32 8 45q0 29 -46 29h-14v27q118 9 203 28l-91 -334q-9 -31 -9 -51q0 -16 15 -16q21 0 64 61z " />
<glyph unicode="&#x12e;" horiz-adv-x="389" d="M90 0h-122v25q39 5 54 18t29 64l117 429q14 51 14 71q0 28 -42 33l-32 4v25h298v-25q-38 -4 -55 -19t-29 -61l-112 -412q-17 -62 -17 -87q0 -21 14.5 -29.5t56.5 -10.5v-25h-126q-6 -28 -6 -42q0 -62 61 -62q22 0 48 13l14 7l22 -14q-19 -35 -53 -55t-73 -20 q-47 0 -75 21t-28 60t42 92z" />
<glyph unicode="&#x12f;" horiz-adv-x="278" d="M222 -84l22 -14q-19 -35 -53 -55t-73 -20q-47 0 -75 21t-28 60q0 37 36 85q-49 8 -49 61q0 22 15 76l55 203q8 32 8 45q0 29 -46 29h-14v27q118 9 203 28l-91 -334q-9 -31 -9 -51q0 -16 15 -16q21 0 64 61l14 20l22 -14q-40 -64 -70.5 -94.5t-63.5 -38.5q-5 -27 -5 -37 q0 -62 61 -62q22 0 48 13zM193 684q28 0 48.5 -20t20.5 -48t-19.5 -47t-48.5 -19q-28 0 -47 20t-19 49q0 25 20 45t45 20z" />
<glyph unicode="&#x130;" horiz-adv-x="389" d="M406 669v-25q-38 -4 -55 -19t-29 -61l-112 -412q-17 -62 -17 -87q0 -21 14.5 -29.5t56.5 -10.5v-25h-296v25q39 5 54 18t29 64l117 429q14 51 14 71q0 28 -42 33l-32 4v25h298zM279 862q27 0 46.5 -19.5t19.5 -46.5q0 -26 -19.5 -45t-46.5 -19q-25 0 -44.5 19t-19.5 45 q0 27 19 46.5t45 19.5z" />
<glyph unicode="&#x131;" horiz-adv-x="278" d="M216 142l22 -14q-48 -79 -85 -108t-83 -29q-68 0 -68 63q0 22 15 76l55 203q8 32 8 45q0 29 -46 29h-14v27q118 9 203 28l-91 -334q-9 -31 -9 -51q0 -16 15 -16q21 0 64 61z" />
<glyph unicode="&#x134;" d="M554 723h-51l-88 95l-131 -95h-57l160 174h81zM524 669v-25q-40 -5 -55.5 -19t-29.5 -66l-122 -457q-26 -99 -82 -150t-133 -51q-67 0 -107.5 26.5t-40.5 74.5q0 30 18.5 51t45.5 21t45 -18t18 -47q0 -17 -11.5 -32t-11.5 -22q0 -18 27 -18t43.5 32t44.5 138l114 432 q13 51 13 64q0 29 -41 36l-33 5v25h298z" />
<glyph unicode="&#x135;" horiz-adv-x="278" d="M314 516h-51l-88 95l-131 -95h-57l160 174h81zM202 322l-79 -304q-31 -119 -81 -172t-126 -53q-47 0 -76 22t-29 55q0 22 14.5 37.5t34.5 15.5q22 0 35.5 -13.5t13.5 -35.5q0 -11 -7.5 -20t-7.5 -15q0 -15 24 -15q21 0 38 31t36 105l89 350q12 45 12 67q0 30 -41 30h-22 v27q136 12 209 28z" />
<glyph unicode="&#x136;" horiz-adv-x="667" d="M702 669v-25q-33 -5 -47.5 -12t-46.5 -36l-216 -199l157 -333q9 -19 22 -27.5t41 -11.5v-25h-280l1 25l26 4q21 3 29.5 8t8.5 15q0 16 -15 49l-111 236l-67 -249q-2 -10 -2 -17q0 -25 13 -34t52 -12v-25h-288v25q36 4 52.5 17t26.5 51l123 453q11 38 11 58q0 17 -9 25 t-32 11l-33 4v25h311v-25q-45 -4 -64.5 -18.5t-29.5 -53.5l-62 -227l197 175q77 68 77 97q0 22 -35 25l-21 2v25h211zM161 -359l-13 25q118 63 118 116q0 21 -30 37q-40 23 -40 65q0 32 21 52.5t52 20.5q39 0 61 -26t22 -68q0 -67 -51 -125.5t-140 -96.5z" />
<glyph unicode="&#x137;" d="M483 449v-25q-37 -5 -61.5 -18.5t-73.5 -57.5l-64 -58q19 -95 33 -145.5t24 -66t22 -15.5q28 0 64 64l22 -11q-32 -68 -65 -96t-73 -28q-47 0 -72.5 46.5t-50.5 176.5l-39 -27l-50 -188h-122l157 566q7 24 7 42q0 20 -7 27t-23 7h-34v27q96 5 209 30l-124 -461 q95 75 130 109.5t35 53.5q0 12 -10.5 16.5t-39.5 6.5v25h206zM51 -359l-13 25q118 63 118 116q0 21 -30 37q-40 23 -40 65q0 32 21 52.5t52 20.5q39 0 61 -26t22 -68q0 -67 -51 -125.5t-140 -96.5z" />
<glyph unicode="&#x138;" horiz-adv-x="600" d="M614 0h-168q-40 5 -69 76q-7 17 -13.5 47t-17.5 56q-15 39 -56 54q-5 -1 -27 -1l-40 -145q-7 -26 -7 -37q0 -25 42 -26l-7 -24h-245l7 24q29 7 44 19t23 43l84 305q4 12 4 24q0 28 -41 31l7 24h245l-7 -24q-33 -5 -45 -14.5t-21 -41.5l-29 -108q23 0 39 3q76 16 102 32 q51 31 90 88q29 42 46.5 53.5t63.5 11.5q28 0 49.5 -17t21.5 -39q0 -20 -14 -31t-36 -11q-19 0 -30.5 10t-18.5 20t-16 10q-21 0 -38 -28q-46 -74 -108 -112q21 -8 33 -34q6 -14 24.5 -69t24.5 -69q14 -37 37.5 -54t73.5 -22z" />
<glyph unicode="&#x139;" horiz-adv-x="611" d="M262 723l122 131q47 50 70 50q20 0 34 -14t14 -33q0 -14 -8.5 -24t-30.5 -23l-152 -87h-49zM590 195l-60 -195h-552v25q40 5 55 20.5t27 57.5l121 443q11 42 11 61q0 15 -9 22t-32 10q-20 4 -34 5v25h318v-25q-50 -3 -69.5 -16.5t-29.5 -53.5l-129 -473q-6 -24 -6 -39 q0 -30 72 -30q104 0 178 45q38 23 61.5 48.5t53.5 74.5z" />
<glyph unicode="&#x13a;" horiz-adv-x="278" d="M104 723l122 131q47 50 70 50q20 0 34 -14t14 -33q0 -14 -8.5 -24t-30.5 -23l-152 -87h-49zM290 699l-145 -523q-22 -79 -22 -100q0 -15 15 -15q25 0 79 80l22 -14q-52 -80 -87 -108t-82 -28q-30 0 -49 18t-19 45q0 34 34 155l74 259q34 118 34 145q0 30 -42 30 q-11 0 -22 -1v27q98 9 210 30z" />
<glyph unicode="&#x13b;" horiz-adv-x="611" d="M590 195l-60 -195h-552v25q40 5 55 20.5t27 57.5l121 443q11 42 11 61q0 15 -9 22t-32 10q-20 4 -34 5v25h318v-25q-50 -3 -69.5 -16.5t-29.5 -53.5l-129 -473q-6 -24 -6 -39q0 -30 72 -30q104 0 178 45q38 23 61.5 48.5t53.5 74.5zM141 -359l-13 25q118 63 118 116 q0 21 -30 37q-40 23 -40 65q0 32 21 52.5t52 20.5q39 0 61 -26t22 -68q0 -67 -51 -125.5t-140 -96.5z" />
<glyph unicode="&#x13c;" horiz-adv-x="278" d="M290 699l-145 -523q-22 -79 -22 -100q0 -15 15 -15q25 0 79 80l22 -14q-52 -80 -87 -108t-82 -28q-30 0 -49 18t-19 45q0 34 34 155l74 259q34 118 34 145q0 30 -42 30q-11 0 -22 -1v27q98 9 210 30zM-49 -359l-13 25q118 63 118 116q0 21 -30 37q-40 23 -40 65 q0 32 21 52.5t52 20.5q39 0 61 -26t22 -68q0 -67 -51 -125.5t-140 -96.5z" />
<glyph unicode="&#x13d;" horiz-adv-x="611" d="M476 369l-13 25q118 63 118 116q0 21 -30 37q-40 23 -40 65q0 35 20.5 54t52.5 19q39 0 61 -26t22 -68q0 -67 -51 -125.5t-140 -96.5zM590 195l-60 -195h-552v25q40 5 55 20.5t27 57.5l121 443q11 42 11 61q0 15 -9 22t-32 10q-20 4 -34 5v25h318v-25q-50 -3 -69.5 -16.5 t-29.5 -53.5l-129 -473q-6 -24 -6 -39q0 -30 72 -30q104 0 178 45q38 23 61.5 48.5t53.5 74.5z" />
<glyph unicode="&#x13e;" horiz-adv-x="451" d="M290 699l-145 -523q-22 -79 -22 -100q0 -15 15 -15q25 0 79 80l22 -14q-52 -80 -87 -108t-82 -28q-30 0 -49 18t-19 45q0 34 34 155l74 259q34 118 34 145q0 30 -42 30q-11 0 -22 -1v27q98 9 210 30zM308 394l-13 25q118 63 118 116q0 21 -30 37q-40 22 -40 65 q0 35 20.5 54t52.5 19q39 0 61 -26t22 -68q0 -67 -51 -125.5t-140 -96.5z" />
<glyph unicode="&#x13f;" horiz-adv-x="611" d="M488 335q0 -31 -21.5 -52.5t-53.5 -21.5q-31 0 -52 21t-21 53t21.5 53t53.5 21q30 0 51.5 -22t21.5 -52zM590 195l-60 -195h-552v25q40 5 55 20.5t27 57.5l121 443q11 42 11 61q0 15 -9 22t-32 10q-20 4 -34 5v25h318v-25q-50 -3 -69.5 -16.5t-29.5 -53.5l-129 -473 q-6 -24 -6 -39q0 -30 72 -30q104 0 178 45q38 23 61.5 48.5t53.5 74.5z" />
<glyph unicode="&#x140;" horiz-adv-x="375" d="M382 328q0 -31 -21.5 -52.5t-53.5 -21.5q-31 0 -52 21t-21 53t21.5 53t53.5 21q30 0 51.5 -22t21.5 -52zM290 699l-145 -523q-22 -79 -22 -100q0 -15 15 -15q25 0 79 80l22 -14q-52 -80 -87 -108t-82 -28q-30 0 -49 18t-19 45q0 34 34 155l74 259q34 118 34 145 q0 30 -42 30q-11 0 -22 -1v27q98 9 210 30z" />
<glyph unicode="&#x141;" horiz-adv-x="611" d="M590 194l-60 -194h-552v25q38 5 53.5 19t26.5 53l50 182l-104 -56l22 70l100 53l55 200q10 38 10 61q0 15 -8.5 21.5t-32.5 10.5l-32 5v25h317v-25q-50 -3 -69.5 -17t-31.5 -58l-44 -158l150 81l-21 -70l-148 -83l-66 -245q-5 -18 -5 -30q0 -32 69 -32q115 0 181 44 q38 25 61 50t55 73z" />
<glyph unicode="&#x142;" horiz-adv-x="278" d="M216 141l22 -14q-50 -78 -84.5 -107t-82.5 -29q-69 0 -69 62q0 44 62 257l-77 -43l19 70l78 43q60 216 60 235q0 28 -42 28q-12 0 -22 -1v27q98 9 210 30l-75 -271l86 47l-19 -68l-86 -47l-51 -184q-22 -82 -22 -100q0 -6 5 -10.5t11 -4.5q13 0 29.5 17.5t47.5 62.5z" />
<glyph unicode="&#x143;" horiz-adv-x="722" d="M350 723l122 131q47 50 70 50q20 0 34 -14t14 -33q0 -14 -8.5 -24t-30.5 -23l-152 -87h-49zM748 669v-25q-42 -8 -58.5 -32.5t-43.5 -120.5l-143 -506h-28l-257 547l-99 -354q-19 -66 -19 -94q0 -29 17.5 -42t61.5 -17v-25h-206v25q42 8 56 30t45 125l120 407 q-15 34 -28.5 43.5t-53.5 13.5v25h193l216 -467l81 289q19 71 19 94q0 59 -81 59v25h208z" />
<glyph unicode="&#x144;" horiz-adv-x="556" d="M161 516l122 131q47 50 70 50q20 0 34 -14t14 -33q0 -14 -8.5 -24t-30.5 -23l-152 -87h-49zM472 135l22 -13q-41 -72 -77.5 -101.5t-82.5 -29.5q-68 0 -68 60q0 47 26 125l55 165q7 23 7 28q0 21 -25 21q-13 0 -33 -16.5t-36 -37.5q-47 -62 -79 -135t-66 -201h-121 l57 204q45 164 45 179q0 14 -11.5 18.5t-43.5 5.5v27q90 3 199 27l-62 -198h1q51 75 73 103.5t49 54.5q43 41 100 41q73 0 73 -77q0 -34 -28 -116l-35 -104q-24 -71 -24 -89q0 -17 14 -17q13 0 27 15t44 61z" />
<glyph unicode="&#x145;" horiz-adv-x="722" d="M748 669v-25q-42 -8 -58.5 -32.5t-43.5 -120.5l-143 -506h-28l-257 547l-99 -354q-19 -66 -19 -94q0 -29 17.5 -42t61.5 -17v-25h-206v25q42 8 56 30t45 125l120 407q-15 34 -28.5 43.5t-53.5 13.5v25h193l216 -467l81 289q19 71 19 94q0 59 -81 59v25h208zM141 -359 l-13 25q118 63 118 116q0 21 -30 37q-40 23 -40 65q0 32 21 52.5t52 20.5q39 0 61 -26t22 -68q0 -67 -51 -125.5t-140 -96.5z" />
<glyph unicode="&#x146;" horiz-adv-x="556" d="M472 135l22 -13q-41 -72 -77.5 -101.5t-82.5 -29.5q-68 0 -68 60q0 47 26 125l55 165q7 23 7 28q0 21 -25 21q-13 0 -33 -16.5t-36 -37.5q-47 -62 -79 -135t-66 -201h-121l57 204q45 164 45 179q0 14 -11.5 18.5t-43.5 5.5v27q90 3 199 27l-62 -198h1q51 75 73 103.5 t49 54.5q43 41 100 41q73 0 73 -77q0 -34 -28 -116l-35 -104q-24 -71 -24 -89q0 -17 14 -17q13 0 27 15t44 61zM81 -359l-13 25q118 63 118 116q0 21 -30 37q-40 23 -40 65q0 32 21 52.5t52 20.5q39 0 61 -26t22 -68q0 -67 -51 -125.5t-140 -96.5z" />
<glyph unicode="&#x147;" horiz-adv-x="722" d="M636 897l-162 -174h-82l-88 174h51l90 -97l134 97h57zM748 669v-25q-42 -8 -58.5 -32.5t-43.5 -120.5l-143 -506h-28l-257 547l-99 -354q-19 -66 -19 -94q0 -29 17.5 -42t61.5 -17v-25h-206v25q42 8 56 30t45 125l120 407q-15 34 -28.5 43.5t-53.5 13.5v25h193l216 -467 l81 289q19 71 19 94q0 59 -81 59v25h208z" />
<glyph unicode="&#x148;" horiz-adv-x="556" d="M506 690l-162 -174h-82l-88 174h51l90 -97l134 97h57zM472 135l22 -13q-41 -72 -77.5 -101.5t-82.5 -29.5q-68 0 -68 60q0 47 26 125l55 165q7 23 7 28q0 21 -25 21q-13 0 -33 -16.5t-36 -37.5q-47 -62 -79 -135t-66 -201h-121l57 204q45 164 45 179q0 14 -11.5 18.5 t-43.5 5.5v27q90 3 199 27l-62 -198h1q51 75 73 103.5t49 54.5q43 41 100 41q73 0 73 -77q0 -34 -28 -116l-35 -104q-24 -71 -24 -89q0 -17 14 -17q13 0 27 15t44 61z" />
<glyph unicode="&#x149;" horiz-adv-x="700" d="M635 135l22 -13q-41 -72 -77.5 -101.5t-82.5 -29.5q-68 0 -68 60q0 47 26 125l55 165q7 23 7 28q0 21 -25 21q-13 0 -33 -16.5t-36 -37.5q-47 -62 -79 -135t-66 -201h-121l57 204q45 164 45 179q0 14 -11.5 18.5t-43.5 5.5v27q90 3 199 27l-62 -198h1q51 75 73 103.5 t49 54.5q43 41 100 41q73 0 73 -77q0 -34 -28 -116l-35 -104q-24 -71 -24 -89q0 -17 14 -17q13 0 27 15t44 61zM55 394l-13 25q118 63 118 116q0 21 -30 37q-40 22 -40 65q0 35 20.5 54t52.5 19q39 0 61 -26t22 -68q0 -67 -51 -125.5t-140 -96.5z" />
<glyph unicode="&#x14a;" horiz-adv-x="722" d="M94 669h290q141 0 221 -70.5t80 -193.5q0 -81 -30.5 -184.5t-81 -198.5t-128.5 -160t-162 -65q-67 0 -107.5 26.5t-40.5 74.5q0 30 18.5 51t45.5 21t45 -18t18 -47q0 -17 -11.5 -32t-11.5 -22q0 -18 27 -18q46 0 110.5 98t113 248t48.5 278q0 181 -165 181 q-25 0 -37 -8.5t-18 -29.5l-168 -600h-196v25q37 5 53.5 21.5t29.5 62.5l115 422q15 53 15 71t-8.5 26t-30.5 11l-34 5v25z" />
<glyph unicode="&#x14b;" horiz-adv-x="543" d="M249 -38l95 354q10 35 10 53q0 21 -25 21q-13 0 -33 -16.5t-36 -37.5q-47 -62 -79 -135t-66 -201h-121l57 204q45 164 45 179q0 14 -11.5 19t-43.5 5v27q94 3 199 27l-62 -198h1q51 75 73 103.5t49 54.5q43 41 100 41q73 0 73 -77q0 -24 -88 -361q-31 -119 -82 -175 t-127 -56q-47 0 -76 22t-29 55q0 22 14.5 37.5t34.5 15.5q22 0 35.5 -13.5t13.5 -35.5q0 -11 -7.5 -20t-7.5 -15q0 -15 24 -15q20 0 34.5 29.5t35.5 108.5z" />
<glyph unicode="&#x14c;" horiz-adv-x="722" d="M651 793l-16 -70h-326l17 70h325zM691 444q0 -95 -49.5 -194.5t-130.5 -171.5q-108 -96 -248 -96q-108 0 -172 62.5t-64 176.5q0 101 51 202.5t135 169.5q114 92 236 92q104 0 173 -66.5t69 -174.5zM547 528q0 60 -27 91.5t-74 31.5q-91 0 -162 -120 q-46 -78 -79.5 -189.5t-33.5 -198.5q0 -57 27.5 -92t74.5 -35q46 0 82 28t75 86q49 72 83 191t34 207z" />
<glyph unicode="&#x14d;" d="M461 586l-16 -70h-326l17 70h325zM280 462h4q73 0 115 -41t42 -110t-29 -135.5t-76 -113.5q-75 -75 -175 -75q-73 0 -118.5 38.5t-45.5 109.5q0 73 27 139t73 111q79 77 183 77zM322 372q0 28 -12.5 44.5t-34.5 16.5q-32 0 -60 -31q-43 -48 -71 -144.5t-28 -177.5 q0 -64 49 -64q41 0 71 49q36 59 61 149.5t25 157.5z" />
<glyph unicode="&#x14e;" horiz-adv-x="722" d="M629 885h39q-33 -162 -178 -162q-138 0 -138 149v13h43q8 -90 99 -90q50 0 81 20.5t54 69.5zM691 444q0 -95 -49.5 -194.5t-130.5 -171.5q-108 -96 -248 -96q-108 0 -172 62.5t-64 176.5q0 101 51 202.5t135 169.5q114 92 236 92q104 0 173 -66.5t69 -174.5zM547 528 q0 60 -27 91.5t-74 31.5q-91 0 -162 -120q-46 -78 -79.5 -189.5t-33.5 -198.5q0 -57 27.5 -92t74.5 -35q46 0 82 28t75 86q49 72 83 191t34 207z" />
<glyph unicode="&#x14f;" d="M449 678h39q-33 -162 -178 -162q-138 0 -138 149v13h43q8 -90 99 -90q50 0 81 20.5t54 69.5zM280 462h4q73 0 115 -41t42 -110t-29 -135.5t-76 -113.5q-75 -75 -175 -75q-73 0 -118.5 38.5t-45.5 109.5q0 73 27 139t73 111q79 77 183 77zM322 372q0 28 -12.5 44.5 t-34.5 16.5q-32 0 -60 -31q-43 -48 -71 -144.5t-28 -177.5q0 -64 49 -64q41 0 71 49q36 59 61 149.5t25 157.5z" />
<glyph unicode="&#x150;" horiz-adv-x="722" d="M460 723l122 133q43 48 70 48q20 0 34 -14t14 -33q0 -27 -39 -49l-151 -85h-50zM271 723l122 133q43 48 70 48q20 0 34 -13t14 -32q0 -29 -39 -51l-149 -85h-52zM691 444q0 -95 -49.5 -194.5t-130.5 -171.5q-108 -96 -248 -96q-108 0 -172 62.5t-64 176.5q0 101 51 202.5 t135 169.5q114 92 236 92q104 0 173 -66.5t69 -174.5zM547 528q0 60 -27 91.5t-74 31.5q-91 0 -162 -120q-46 -78 -79.5 -189.5t-33.5 -198.5q0 -57 27.5 -92t74.5 -35q46 0 82 28t75 86q49 72 83 191t34 207z" />
<glyph unicode="&#x151;" d="M279 516l122 133q43 48 70 48q20 0 34 -14t14 -33q0 -27 -39 -49l-151 -85h-50zM90 516l122 133q43 48 70 48q20 0 34 -13t14 -32q0 -29 -39 -51l-149 -85h-52zM280 462h4q73 0 115 -41t42 -110t-29 -135.5t-76 -113.5q-75 -75 -175 -75q-73 0 -118.5 38.5t-45.5 109.5 q0 73 27 139t73 111q79 77 183 77zM322 372q0 28 -12.5 44.5t-34.5 16.5q-32 0 -60 -31q-43 -48 -71 -144.5t-28 -177.5q0 -64 49 -64q41 0 71 49q36 59 61 149.5t25 157.5z" />
<glyph unicode="&#x152;" horiz-adv-x="944" d="M946 669l-46 -191l-25 6q2 28 2 37q0 59 -40 87q-41 29 -125 29q-26 0 -35.5 -8t-17.5 -39l-61 -220h25q67 0 103.5 23t60.5 80l27 -3l-72 -272l-27 5l1 19q0 7 1.5 21.5t1.5 19.5q0 31 -21 48q-11 10 -31.5 14.5t-77.5 10.5l-64 -245q-4 -18 -4 -25q0 -34 73 -34 q88 0 146.5 38t110.5 129l27 -5l-60 -194h-324q-34 0 -102 -4t-98 -4h-18q-120 0 -184 57q-69 61 -69 175q0 108 55 212.5t146 170.5q53 38 107 54t133 16q26 0 56 -3q70 -5 91 -5h335zM392 123l108 391q12 46 12 69q0 62 -73 62q-90 0 -161 -106q-46 -68 -80 -181.5 t-34 -199.5q0 -60 33 -96.5t88 -36.5q43 0 67.5 22.5t39.5 75.5z" />
<glyph unicode="&#x153;" horiz-adv-x="722" d="M591 139l28 -15q-31 -64 -72 -97q-52 -40 -116 -40q-63 0 -117 57q-63 -57 -148 -57q-71 0 -115.5 43.5t-44.5 113.5q0 61 29 127t75 112q80 79 190 79q40 0 66 -14t50 -48q44 35 75.5 48.5t70.5 13.5q52 0 82 -24.5t30 -65.5q0 -71 -87 -127q-36 -23 -68 -35t-105 -26 q-8 -39 -8 -56q0 -78 67 -78q35 0 59.5 18.5t58.5 70.5zM421 218q59 17 90.5 38.5t52.5 58.5q22 41 22 77q0 40 -37 40q-22 0 -36 -16q-26 -30 -43.5 -65.5t-48.5 -132.5zM282 433q-48 0 -86 -74q-27 -51 -49.5 -130.5t-22.5 -131.5q0 -81 53 -81q52 0 97 97q22 48 42.5 128 t20.5 118q0 74 -55 74z" />
<glyph unicode="&#x154;" horiz-adv-x="667" d="M280 723l122 131q47 50 70 50q20 0 34 -14t14 -33q0 -14 -8.5 -24t-30.5 -23l-152 -87h-49zM110 669h286q227 0 227 -143q0 -92 -96 -151q-31 -19 -96 -32l85 -254q12 -36 28.5 -48t58.5 -16v-25h-202l-107 331h-30l-52 -182q-18 -62 -18 -82q0 -22 14 -30.5t58 -11.5 v-25h-294v25q36 4 53 21.5t29 62.5l120 437q10 38 10 61q0 16 -9 24t-33 10l-32 3v25zM330 583l-57 -220q91 1 127 25q33 20 52.5 62t19.5 92q0 46 -21 70.5t-61 24.5q-25 0 -38 -10.5t-22 -43.5z" />
<glyph unicode="&#x155;" horiz-adv-x="389" d="M139 516l122 131q47 50 70 50q20 0 34 -14t14 -33q0 -14 -8.5 -24t-30.5 -23l-152 -87h-49zM160 253h1q60 121 95.5 165t75.5 44q26 0 41.5 -18t15.5 -48q0 -31 -16.5 -52t-41.5 -21q-22 0 -37.5 19t-23.5 19q-23 0 -65 -76q-36 -65 -74 -186l-31 -99h-121 q102 345 102 382q0 14 -11.5 19.5t-44.5 5.5v27q131 11 200 28z" />
<glyph unicode="&#x156;" horiz-adv-x="667" d="M110 669h286q227 0 227 -143q0 -92 -96 -151q-31 -19 -96 -32l85 -254q12 -36 28.5 -48t58.5 -16v-25h-202l-107 331h-30l-52 -182q-18 -62 -18 -82q0 -22 14 -30.5t58 -11.5v-25h-294v25q36 4 53 21.5t29 62.5l120 437q10 38 10 61q0 16 -9 24t-33 10l-32 3v25zM330 583 l-57 -220q91 1 127 25q33 20 52.5 62t19.5 92q0 46 -21 70.5t-61 24.5q-25 0 -38 -10.5t-22 -43.5zM140 -359l-13 25q118 63 118 116q0 21 -30 37q-40 23 -40 65q0 32 21 52.5t52 20.5q39 0 61 -26t22 -68q0 -67 -51 -125.5t-140 -96.5z" />
<glyph unicode="&#x157;" horiz-adv-x="389" d="M160 253h1q60 121 95.5 165t75.5 44q26 0 41.5 -18t15.5 -48q0 -31 -16.5 -52t-41.5 -21q-22 0 -37.5 19t-23.5 19q-23 0 -65 -76q-36 -65 -74 -186l-31 -99h-121q102 345 102 382q0 14 -11.5 19.5t-44.5 5.5v27q131 11 200 28zM-89 -359l-13 25q118 63 118 116 q0 21 -30 37q-40 23 -40 65q0 32 21 52.5t52 20.5q39 0 61 -26t22 -68q0 -67 -51 -125.5t-140 -96.5z" />
<glyph unicode="&#x158;" horiz-adv-x="667" d="M566 897l-162 -174h-82l-88 174h51l90 -97l134 97h57zM110 669h286q227 0 227 -143q0 -92 -96 -151q-31 -19 -96 -32l85 -254q12 -36 28.5 -48t58.5 -16v-25h-202l-107 331h-30l-52 -182q-18 -62 -18 -82q0 -22 14 -30.5t58 -11.5v-25h-294v25q36 4 53 21.5t29 62.5 l120 437q10 38 10 61q0 16 -9 24t-33 10l-32 3v25zM330 583l-57 -220q91 1 127 25q33 20 52.5 62t19.5 92q0 46 -21 70.5t-61 24.5q-25 0 -38 -10.5t-22 -43.5z" />
<glyph unicode="&#x159;" horiz-adv-x="389" d="M411 690l-162 -174h-82l-88 174h51l90 -97l134 97h57zM160 253h1q60 121 95.5 165t75.5 44q26 0 41.5 -18t15.5 -48q0 -31 -16.5 -52t-41.5 -21q-22 0 -37.5 19t-23.5 19q-23 0 -65 -76q-36 -65 -74 -186l-31 -99h-121q102 345 102 382q0 14 -11.5 19.5t-44.5 5.5v27 q131 11 200 28z" />
<glyph unicode="&#x15a;" horiz-adv-x="556" d="M200 723l122 131q47 50 70 50q20 0 34 -14t14 -33q0 -14 -8.5 -24t-30.5 -23l-152 -87h-49zM526 681l-40 -202l-27 4q-9 76 -22 101q-33 66 -116 66q-41 0 -69.5 -29t-28.5 -76q0 -41 22.5 -66.5t84.5 -70.5q80 -58 109 -104t29 -113q0 -63 -29 -110.5t-81 -73.5 q-52 -25 -120 -25q-53 0 -122 24q-32 11 -46 11t-21.5 -6.5t-16.5 -28.5h-30l36 225l29 -2q7 -54 16 -84t32 -55q44 -50 106 -50q56 0 89 34q37 37 37 92q0 43 -25.5 75.5t-89.5 78.5q-66 47 -98 92.5t-32 105.5q0 84 58.5 137.5t145.5 53.5q50 0 91.5 -15t54.5 -15 q31 0 44 26h30z" />
<glyph unicode="&#x15b;" horiz-adv-x="389" d="M139 516l122 131q47 50 70 50q20 0 34 -14t14 -33q0 -14 -8.5 -24t-30.5 -23l-152 -87h-49zM333 461l-23 -154l-27 2q-12 63 -33 91.5t-55 28.5q-24 0 -38.5 -14.5t-14.5 -38.5q0 -33 57 -99q80 -93 80 -162q0 -56 -43 -92t-105 -36q-35 0 -64 12q-21 8 -30 8 q-20 0 -29 -20h-27l22 166l27 -3q17 -133 93 -133q29 0 44.5 14.5t15.5 39.5q0 41 -56 104q-50 56 -65 87.5t-15 73.5q0 59 36.5 92.5t97.5 33.5q33 0 58 -12q21 -10 37 -10q11 0 16 4t12 17h29z" />
<glyph unicode="&#x15c;" horiz-adv-x="556" d="M484 723h-51l-88 95l-131 -95h-57l160 174h81zM526 681l-40 -202l-27 4q-9 76 -22 101q-33 66 -116 66q-41 0 -69.5 -29t-28.5 -76q0 -41 22.5 -66.5t84.5 -70.5q80 -58 109 -104t29 -113q0 -63 -29 -110.5t-81 -73.5q-52 -25 -120 -25q-53 0 -122 24q-32 11 -46 11 t-21.5 -6.5t-16.5 -28.5h-30l36 225l29 -2q7 -54 16 -84t32 -55q44 -50 106 -50q56 0 89 34q37 37 37 92q0 43 -25.5 75.5t-89.5 78.5q-66 47 -98 92.5t-32 105.5q0 84 58.5 137.5t145.5 53.5q50 0 91.5 -15t54.5 -15q31 0 44 26h30z" />
<glyph unicode="&#x15d;" horiz-adv-x="389" d="M367 516h-51l-88 95l-131 -95h-57l160 174h81zM333 461l-23 -154l-27 2q-12 63 -33 91.5t-55 28.5q-24 0 -38.5 -14.5t-14.5 -38.5q0 -33 57 -99q80 -93 80 -162q0 -56 -43 -92t-105 -36q-35 0 -64 12q-21 8 -30 8q-20 0 -29 -20h-27l22 166l27 -3q17 -133 93 -133 q29 0 44.5 14.5t15.5 39.5q0 41 -56 104q-50 56 -65 87.5t-15 73.5q0 59 36.5 92.5t97.5 33.5q33 0 58 -12q21 -10 37 -10q11 0 16 4t12 17h29z" />
<glyph unicode="&#x15e;" horiz-adv-x="556" d="M172 -92l51 74q-46 3 -107 24q-32 11 -46 11t-21.5 -6.5t-16.5 -28.5h-30l36 225l29 -2q7 -54 16 -84t32 -55q44 -50 106 -50q56 0 89 34q37 37 37 92q0 43 -25.5 75.5t-89.5 78.5q-66 47 -98 92.5t-32 105.5q0 84 58.5 137.5t145.5 53.5q50 0 91.5 -15t54.5 -15 q31 0 44 26h30l-40 -202l-27 4q-9 76 -22 101q-33 66 -116 66q-41 0 -69.5 -29t-28.5 -76q0 -41 22.5 -66.5t84.5 -70.5q80 -58 109 -104t29 -113q0 -63 -29 -110.5t-81 -73.5q-39 -20 -91 -24l-30 -45q15 3 26 3q39 0 64.5 -20.5t25.5 -51.5q0 -37 -35.5 -62t-88.5 -25 q-51 0 -112 25l22 33q38 -17 67 -17q26 0 41 11t15 30q0 36 -47 36q-14 0 -30 -4z" />
<glyph unicode="&#x15f;" horiz-adv-x="389" d="M65 -92l54 79q-25 1 -52 12q-21 8 -30 8q-20 0 -29 -20h-27l22 166l27 -3q17 -133 93 -133q29 0 44.5 14.5t15.5 39.5q0 41 -56 104q-50 56 -65 87.5t-15 73.5q0 59 36.5 92.5t97.5 33.5q33 0 58 -12q21 -10 37 -10q11 0 16 4t12 17h29l-23 -154l-27 2q-12 63 -33 91.5 t-55 28.5q-24 0 -38.5 -14.5t-14.5 -38.5q0 -33 57 -99q80 -93 80 -162q0 -47 -32 -81t-82 -44l-35 -52q15 3 26 3q39 0 64.5 -20.5t25.5 -51.5q0 -37 -35.5 -62t-88.5 -25q-51 0 -112 25l22 33q38 -17 67 -17q26 0 41 11t15 30q0 36 -47 36q-14 0 -30 -4z" />
<glyph unicode="&#x160;" horiz-adv-x="556" d="M516 897l-162 -174h-82l-88 174h51l90 -97l134 97h57zM526 681l-40 -202l-27 4q-9 76 -22 101q-33 66 -116 66q-41 0 -69.5 -29t-28.5 -76q0 -41 22.5 -66.5t84.5 -70.5q80 -58 109 -104t29 -113q0 -63 -29 -110.5t-81 -73.5q-52 -25 -120 -25q-53 0 -122 24 q-32 11 -46 11t-21.5 -6.5t-16.5 -28.5h-30l36 225l29 -2q7 -54 16 -84t32 -55q44 -50 106 -50q56 0 89 34q37 37 37 92q0 43 -25.5 75.5t-89.5 78.5q-66 47 -98 92.5t-32 105.5q0 84 58.5 137.5t145.5 53.5q50 0 91.5 -15t54.5 -15q31 0 44 26h30z" />
<glyph unicode="&#x161;" horiz-adv-x="389" d="M411 690l-162 -174h-82l-88 174h51l90 -97l134 97h57zM333 461l-23 -154l-27 2q-12 63 -33 91.5t-55 28.5q-24 0 -38.5 -14.5t-14.5 -38.5q0 -33 57 -99q80 -93 80 -162q0 -56 -43 -92t-105 -36q-35 0 -64 12q-21 8 -30 8q-20 0 -29 -20h-27l22 166l27 -3 q17 -133 93 -133q29 0 44.5 14.5t15.5 39.5q0 41 -56 104q-50 56 -65 87.5t-15 73.5q0 59 36.5 92.5t97.5 33.5q33 0 58 -12q21 -10 37 -10q11 0 16 4t12 17h29z" />
<glyph unicode="&#x162;" horiz-adv-x="611" d="M190 0h-141v25h15q72 0 91 72l148 537q-79 -2 -130 -34t-88 -109l-25 7l39 171h551l-36 -192l-27 2q0 85 -31.5 120t-106.5 35l-135 -489q-17 -58 -17 -74q0 -46 83 -46v-25h-146l-42 -62q15 3 26 3q39 0 64.5 -20.5t25.5 -51.5q0 -37 -35.5 -62t-88.5 -25q-51 0 -112 25 l22 33q38 -17 67 -17q26 0 41 11t15 30q0 36 -47 36q-14 0 -30 -4l-13 12z" />
<glyph unicode="&#x163;" horiz-adv-x="278" d="M-20 -92l59 86q-42 11 -42 62q0 28 25 115l67 236h-52v35q62 21 103 55t81 97h35l-39 -145h72v-42h-83l-34 -119q-53 -185 -53 -209q0 -18 16 -18q25 0 76 80l23 -15q-45 -69 -79.5 -99t-73.5 -35l-36 -54q15 3 26 3q39 0 64.5 -20.5t25.5 -51.5q0 -37 -35.5 -62 t-88.5 -25q-51 0 -112 25l22 33q38 -17 67 -17q26 0 41 11t15 30q0 36 -47 36q-14 0 -30 -4z" />
<glyph unicode="&#x164;" horiz-adv-x="611" d="M596 897l-162 -174h-82l-88 174h51l90 -97l134 97h57zM650 669l-36 -192l-27 2q0 85 -31.5 120t-106.5 35l-135 -489q-17 -58 -17 -74q0 -46 83 -46v-25h-331v25h15q72 0 91 72l148 537q-79 -2 -130 -34t-88 -109l-25 7l39 171h551z" />
<glyph unicode="&#x165;" horiz-adv-x="411" d="M308 394l-13 25q118 63 118 116q0 21 -30 37q-40 22 -40 65q0 35 20.5 54t52.5 19q39 0 61 -26t22 -68q0 -67 -51 -125.5t-140 -96.5zM266 407h-68l-34 -119q-53 -183 -53 -209q0 -18 16 -18q27 0 76 80l23 -15q-25 -40 -44 -64.5t-53.5 -47.5t-72.5 -23q-67 0 -67 65 q0 31 25 115l67 236h-52v35q64 22 105 56.5t79 95.5h35l-39 -145h57v-42z" />
<glyph unicode="&#x166;" horiz-adv-x="611" d="M100 322l9 34h117l77 278q-79 -2 -130 -34t-88 -109l-25 7l39 171h551l-36 -192l-27 2q0 85 -31.5 120t-106.5 35l-77 -278h114l-9 -34h-114l-49 -177q-17 -58 -17 -74q0 -46 83 -46v-25h-331v25h15q72 0 91 72l62 225h-117z" />
<glyph unicode="&#x167;" horiz-adv-x="278" d="M-30 232l16 56h61l34 119h-52v35q62 21 103 55t81 97h35l-39 -145h72v-42h-83l-34 -119h92l-16 -56h-92q-37 -133 -37 -153q0 -18 16 -18q25 0 76 80l23 -15q-49 -76 -86.5 -105.5t-83.5 -29.5q-67 0 -67 65q0 28 25 115l17 61h-61z" />
<glyph unicode="&#x168;" horiz-adv-x="722" d="M599 841h41q-16 -63 -44 -91t-73 -28q-25 0 -57 13l-59 23q-21 8 -38 8q-31 0 -48 -43h-40q10 54 41.5 86t74.5 32q38 0 97 -26q39 -16 54 -16q17 0 28.5 9t22.5 33zM744 669v-25q-32 -6 -44.5 -14t-25.5 -36.5t-32 -96.5l-65 -234q-25 -89 -52.5 -145t-68.5 -89 q-59 -47 -166 -47q-101 0 -162 42.5t-61 120.5q0 47 37 189l51 193q15 55 15 78q0 17 -9 25.5t-32 10.5l-32 3v25h311v-25q-46 -2 -64 -16.5t-30 -59.5l-81 -294q-28 -101 -28 -135q0 -101 122 -101q78 0 123 47q49 51 90 197l57 209q19 70 19 96q0 57 -79 57v25h207z" />
<glyph unicode="&#x169;" horiz-adv-x="556" d="M449 655h41q-16 -63 -44 -91t-73 -28q-25 0 -57 13l-59 23q-21 8 -38 8q-31 0 -48 -43h-40q10 54 41.5 86t74.5 32q38 0 97 -26q39 -16 54 -16q17 0 28.5 9t22.5 33zM471 133l22 -13q-39 -67 -76.5 -98t-82.5 -31q-68 0 -68 60q0 31 26 110h-1q-70 -103 -109.5 -136.5 t-88.5 -33.5q-78 0 -78 79q0 27 22 106l37 128q17 62 17 75q0 24 -58 28v27q87 2 210 28l-93 -302q-16 -51 -16 -72q0 -25 24 -25q28 0 70 55q47 61 75.5 125t66.5 206h118l-78 -266q-25 -88 -25 -103q0 -21 14 -21q24 0 72 74z" />
<glyph unicode="&#x16a;" horiz-adv-x="722" d="M641 793l-16 -70h-326l17 70h325zM744 669v-25q-32 -6 -44.5 -14t-25.5 -36.5t-32 -96.5l-65 -234q-25 -89 -52.5 -145t-68.5 -89q-59 -47 -166 -47q-101 0 -162 42.5t-61 120.5q0 47 37 189l51 193q15 55 15 78q0 17 -9 25.5t-32 10.5l-32 3v25h311v-25 q-46 -2 -64 -16.5t-30 -59.5l-81 -294q-28 -101 -28 -135q0 -101 122 -101q78 0 123 47q49 51 90 197l57 209q19 70 19 96q0 57 -79 57v25h207z" />
<glyph unicode="&#x16b;" horiz-adv-x="556" d="M481 586l-16 -70h-326l17 70h325zM471 133l22 -13q-39 -67 -76.5 -98t-82.5 -31q-68 0 -68 60q0 31 26 110h-1q-70 -103 -109.5 -136.5t-88.5 -33.5q-78 0 -78 79q0 27 22 106l37 128q17 62 17 75q0 24 -58 28v27q87 2 210 28l-93 -302q-16 -51 -16 -72q0 -25 24 -25 q28 0 70 55q47 61 75.5 125t66.5 206h118l-78 -266q-25 -88 -25 -103q0 -21 14 -21q24 0 72 74z" />
<glyph unicode="&#x16c;" horiz-adv-x="722" d="M589 885h39q-33 -162 -178 -162q-138 0 -138 149v13h43q8 -90 99 -90q50 0 81 20.5t54 69.5zM744 669v-25q-32 -6 -44.5 -14t-25.5 -36.5t-32 -96.5l-65 -234q-25 -89 -52.5 -145t-68.5 -89q-59 -47 -166 -47q-101 0 -162 42.5t-61 120.5q0 47 37 189l51 193q15 55 15 78 q0 17 -9 25.5t-32 10.5l-32 3v25h311v-25q-46 -2 -64 -16.5t-30 -59.5l-81 -294q-28 -101 -28 -135q0 -101 122 -101q78 0 123 47q49 51 90 197l57 209q19 70 19 96q0 57 -79 57v25h207z" />
<glyph unicode="&#x16d;" horiz-adv-x="556" d="M439 678h39q-33 -162 -178 -162q-138 0 -138 149v13h43q8 -90 99 -90q50 0 81 20.5t54 69.5zM471 133l22 -13q-39 -67 -76.5 -98t-82.5 -31q-68 0 -68 60q0 31 26 110h-1q-70 -103 -109.5 -136.5t-88.5 -33.5q-78 0 -78 79q0 27 22 106l37 128q17 62 17 75q0 24 -58 28 v27q87 2 210 28l-93 -302q-16 -51 -16 -72q0 -25 24 -25q28 0 70 55q47 61 75.5 125t66.5 206h118l-78 -266q-25 -88 -25 -103q0 -21 14 -21q24 0 72 74z" />
<glyph unicode="&#x16e;" horiz-adv-x="722" d="M567 815q0 -44 -31.5 -75.5t-75.5 -31.5q-48 0 -77 30t-29 78q0 44 31.5 74.5t75.5 30.5q47 0 76.5 -30.5t29.5 -75.5zM519 813q0 25 -17.5 42.5t-42.5 17.5q-23 0 -40 -17.5t-17 -41.5t17 -41t40 -17q25 0 42.5 17t17.5 40zM744 669v-25q-32 -6 -44.5 -14t-25.5 -36.5 t-32 -96.5l-65 -234q-25 -89 -52.5 -145t-68.5 -89q-59 -47 -166 -47q-101 0 -162 42.5t-61 120.5q0 47 37 189l51 193q15 55 15 78q0 17 -9 25.5t-32 10.5l-32 3v25h311v-25q-46 -2 -64 -16.5t-30 -59.5l-81 -294q-28 -101 -28 -135q0 -101 122 -101q78 0 123 47 q49 51 90 197l57 209q19 70 19 96q0 57 -79 57v25h207z" />
<glyph unicode="&#x16f;" horiz-adv-x="556" d="M417 623q0 -44 -31.5 -75.5t-75.5 -31.5q-48 0 -77 30t-29 78q0 44 31.5 74.5t75.5 30.5q47 0 76.5 -30.5t29.5 -75.5zM369 621q0 25 -17.5 42.5t-42.5 17.5q-23 0 -40 -17.5t-17 -41.5t17 -41t40 -17q25 0 42.5 17t17.5 40zM471 133l22 -13q-39 -67 -76.5 -98t-82.5 -31 q-68 0 -68 60q0 31 26 110h-1q-70 -103 -109.5 -136.5t-88.5 -33.5q-78 0 -78 79q0 27 22 106l37 128q17 62 17 75q0 24 -58 28v27q87 2 210 28l-93 -302q-16 -51 -16 -72q0 -25 24 -25q28 0 70 55q47 61 75.5 125t66.5 206h118l-78 -266q-25 -88 -25 -103q0 -21 14 -21 q24 0 72 74z" />
<glyph unicode="&#x170;" horiz-adv-x="722" d="M438 708l122 133q43 48 70 48q20 0 34 -14t14 -33q0 -27 -39 -49l-151 -85h-50zM249 708l122 133q43 48 70 48q20 0 34 -13t14 -32q0 -29 -39 -51l-149 -85h-52zM744 669v-25q-32 -6 -44.5 -14t-25.5 -36.5t-32 -96.5l-65 -234q-25 -89 -52.5 -145t-68.5 -89 q-59 -47 -166 -47q-101 0 -162 42.5t-61 120.5q0 47 37 189l51 193q15 55 15 78q0 17 -9 25.5t-32 10.5l-32 3v25h311v-25q-46 -2 -64 -16.5t-30 -59.5l-81 -294q-28 -101 -28 -135q0 -101 122 -101q78 0 123 47q49 51 90 197l57 209q19 70 19 96q0 57 -79 57v25h207z" />
<glyph unicode="&#x171;" horiz-adv-x="556" d="M287 516l122 133q43 48 70 48q20 0 34 -14t14 -33q0 -27 -39 -49l-151 -85h-50zM98 516l122 133q43 48 70 48q20 0 34 -13t14 -32q0 -29 -39 -51l-149 -85h-52zM471 133l22 -13q-39 -67 -76.5 -98t-82.5 -31q-68 0 -68 60q0 31 26 110h-1q-70 -103 -109.5 -136.5 t-88.5 -33.5q-78 0 -78 79q0 27 22 106l37 128q17 62 17 75q0 24 -58 28v27q87 2 210 28l-93 -302q-16 -51 -16 -72q0 -25 24 -25q28 0 70 55q47 61 75.5 125t66.5 206h118l-78 -266q-25 -88 -25 -103q0 -21 14 -21q24 0 72 74z" />
<glyph unicode="&#x172;" horiz-adv-x="722" d="M496 -84l22 -14q-19 -35 -53 -55t-73 -20q-47 0 -75 21t-28 60q0 35 29 75q-9 -1 -28 -1q-101 0 -162 42.5t-61 120.5q0 47 37 189l51 193q15 55 15 78q0 17 -9 25.5t-32 10.5l-32 3v25h311v-25q-46 -2 -64 -16.5t-30 -59.5l-81 -294q-28 -101 -28 -135q0 -101 122 -101 q78 0 123 47q49 51 90 197l57 209q19 70 19 96q0 57 -79 57v25h207v-25q-32 -6 -44.5 -14t-25.5 -36.5t-32 -96.5l-65 -234q-25 -89 -52.5 -145t-68.5 -89q-36 -28 -79 -37q-4 -20 -4 -34q0 -62 61 -62q22 0 48 13z" />
<glyph unicode="&#x173;" horiz-adv-x="556" d="M337 -9h-3q-68 0 -68 60q0 31 26 110h-1q-70 -103 -109.5 -136.5t-88.5 -33.5q-78 0 -78 79q0 27 22 106l37 128q17 62 17 75q0 24 -58 28v27q87 2 210 28l-93 -302q-16 -51 -16 -72q0 -25 24 -25q28 0 70 55q47 61 75.5 125t66.5 206h118l-78 -266q-25 -88 -25 -103 q0 -21 14 -21q24 0 72 74l22 -13q-52 -87 -99 -113q-8 -37 -8 -49q0 -62 61 -62q22 0 48 13l14 7l22 -14q-19 -35 -53 -55t-73 -20q-47 0 -75 21t-28 60q0 37 35 83z" />
<glyph unicode="&#x174;" horiz-adv-x="889" d="M704 723h-51l-88 95l-131 -95h-57l160 174h81zM940 669v-24q-32 -5 -48 -19t-40 -63l-282 -581h-29l-59 489l-233 -489h-29l-78 572q-8 54 -19.5 68.5t-58.5 22.5v24h278v-25q-35 -4 -48 -15t-13 -35q0 -14 1 -19l40 -349l149 314q0 60 -12.5 79.5t-57.5 25.5v24h267v-25 q-39 -4 -50.5 -14.5t-11.5 -39.5q0 -5 7 -73l33 -291l155 327q15 33 15 46q0 27 -10.5 34.5t-52.5 10.5v25h187z" />
<glyph unicode="&#x175;" horiz-adv-x="667" d="M534 516h-51l-88 95l-131 -95h-57l160 174h81zM387 462l31 -333q120 140 120 187q0 15 -20 38q-22 25 -22 48q0 29 16.5 44.5t40.5 15.5q25 0 43 -18.5t18 -43.5q0 -131 -272 -413h-27l-23 285q-85 -158 -114 -201l-56 -84h-27v46q0 4 0.5 24.5t0.5 37.5 q0 94 -11.5 191.5t-26.5 110.5q-11 10 -43 10v27q110 18 156 28q33 -123 33 -274l156 274h27z" />
<glyph unicode="&#x176;" horiz-adv-x="611" d="M564 723h-51l-88 95l-131 -95h-57l160 174h81zM659 669v-25q-27 -4 -46.5 -20t-45.5 -52l-189 -264l-52 -191q-10 -40 -10 -51q0 -22 17 -31.5t62 -9.5v-25h-323v25q52 5 72 18.5t32 59.5l57 208l-87 270q-12 35 -23.5 45t-51.5 18v25h285v-25q-42 -2 -55.5 -9.5 t-13.5 -29.5q0 -19 29 -110l46 -143l128 183q28 40 28 67q0 23 -13 32t-53 10v25h207z" />
<glyph unicode="&#x177;" horiz-adv-x="444" d="M393 516h-51l-88 95l-131 -95h-57l160 174h81zM239 110h2q52 99 69.5 141t17.5 66q0 13 -25 34q-31 25 -31 54q0 21 16 39t42 18q25 0 43.5 -19t18.5 -45q0 -76 -75.5 -227t-173.5 -270q-41 -50 -87.5 -78t-87.5 -28q-26 0 -44 17.5t-18 42.5q0 22 15.5 39t34.5 17 q25 0 51 -18t43 -18q13 0 32 15t35 37q25 35 25 71q0 50 -50 288q-21 94 -40 113q-8 8 -14.5 10t-25.5 2v27q86 8 150 24q43 -111 66 -274z" />
<glyph unicode="&#x178;" horiz-adv-x="611" d="M659 669v-25q-27 -4 -46.5 -20t-45.5 -52l-189 -264l-52 -191q-10 -40 -10 -51q0 -22 17 -31.5t62 -9.5v-25h-323v25q52 5 72 18.5t32 59.5l57 208l-87 270q-12 35 -23.5 45t-51.5 18v25h285v-25q-42 -2 -55.5 -9.5t-13.5 -29.5q0 -19 29 -110l46 -143l128 183 q28 40 28 67q0 23 -13 32t-53 10v25h207zM293 862q27 0 46.5 -19.5t19.5 -46.5q0 -26 -19.5 -45t-46.5 -19q-25 0 -44.5 19t-19.5 45q0 27 19 46.5t45 19.5zM505 862q27 0 46.5 -19.5t19.5 -46.5q0 -26 -19.5 -45t-46.5 -19q-25 0 -44.5 19t-19.5 45q0 27 19 46.5t45 19.5z " />
<glyph unicode="&#x179;" horiz-adv-x="611" d="M270 723l122 131q47 50 70 50q20 0 34 -14t14 -33q0 -14 -8.5 -24t-30.5 -23l-152 -87h-49zM589 640l-434 -605h75q70 0 115.5 11t83.5 39q49 37 97 114l27 -5l-60 -194h-505v29l434 605h-83q-79 0 -133.5 -32t-113.5 -115l-28 4l58 178h467v-29z" />
<glyph unicode="&#x17a;" horiz-adv-x="389" d="M139 516l122 131q47 50 70 50q20 0 34 -14t14 -33q0 -14 -8.5 -24t-30.5 -23l-152 -87h-49zM368 439l-281 -335q52 -23 86 -69q6 -8 19 -32.5t24.5 -38t24.5 -13.5q10 0 16 5t6 12q0 6 -10 18t-10 27q0 21 15 37t35 16q21 0 37 -16t16 -37q0 -45 -31 -68t-79 -23 q-59 0 -129 50q-46 33 -74 33q-13 0 -32 -14q-12 -10 -19 -14l-25 22l292 354h-136q-29 0 -45.5 -13.5t-27.5 -47.5l-27 3l44 154h311v-10z" />
<glyph unicode="&#x17b;" horiz-adv-x="611" d="M589 640l-434 -605h75q70 0 115.5 11t83.5 39q49 37 97 114l27 -5l-60 -194h-505v29l434 605h-83q-79 0 -133.5 -32t-113.5 -115l-28 4l58 178h467v-29zM369 862q27 0 46.5 -19.5t19.5 -46.5q0 -26 -19.5 -45t-46.5 -19q-25 0 -44.5 19t-19.5 45q0 27 19 46.5t45 19.5z " />
<glyph unicode="&#x17c;" horiz-adv-x="389" d="M293 589q0 -26 -19.5 -45t-46.5 -19q-25 0 -44.5 19.5t-19.5 44.5q0 27 19 46.5t45 19.5q27 0 46.5 -19.5t19.5 -46.5zM368 439l-281 -335q52 -23 86 -69q6 -8 19 -32.5t24.5 -38t24.5 -13.5q10 0 16 5t6 12q0 6 -10 18t-10 27q0 21 15 37t35 16q21 0 37 -16t16 -37 q0 -45 -31 -68t-79 -23q-59 0 -129 50q-46 33 -74 33q-13 0 -32 -14q-12 -10 -19 -14l-25 22l292 354h-136q-29 0 -45.5 -13.5t-27.5 -47.5l-27 3l44 154h311v-10z" />
<glyph unicode="&#x17d;" horiz-adv-x="611" d="M556 897l-162 -174h-82l-88 174h51l90 -97l134 97h57zM589 640l-434 -605h75q70 0 115.5 11t83.5 39q49 37 97 114l27 -5l-60 -194h-505v29l434 605h-83q-79 0 -133.5 -32t-113.5 -115l-28 4l58 178h467v-29z" />
<glyph unicode="&#x17e;" horiz-adv-x="389" d="M411 690l-162 -174h-82l-88 174h51l90 -97l134 97h57zM368 439l-281 -335q52 -23 86 -69q6 -8 19 -32.5t24.5 -38t24.5 -13.5q10 0 16 5t6 12q0 6 -10 18t-10 27q0 21 15 37t35 16q21 0 37 -16t16 -37q0 -45 -31 -68t-79 -23q-59 0 -129 50q-46 33 -74 33q-13 0 -32 -14 q-12 -10 -19 -14l-25 22l292 354h-136q-29 0 -45.5 -13.5t-27.5 -47.5l-27 3l44 154h311v-10z" />
<glyph unicode="&#x17f;" horiz-adv-x="333" d="M165 418h-41l10 44h41q30 130 80 178q28 27 59.5 39t83.5 12q60 0 99 -28.5t39 -70.5q0 -28 -17.5 -46t-45.5 -18q-25 0 -42 17t-17 38t11 37.5t11 21.5q0 18 -27 18t-42.5 -17.5t-25.5 -61.5l-107 -474q-6 -25 -6 -41q0 -23 15.5 -32t54.5 -10l-6 -24h-278l6 24 q35 4 49 16.5t22 46.5z" />
<glyph unicode="&#x180;" d="M232 515l-39 -142q65 89 144 89q47 0 77 -37.5t30 -93.5q0 -135 -97 -239.5t-223 -104.5q-53 0 -95.5 17.5t-42.5 43.5q0 9 20 81l110 386h-115l14 46h114q10 39 10 51q0 30 -46 30h-19v27q123 14 210 30l-39 -138h118l-13 -46h-118zM319 325q0 69 -41 69q-52 0 -92 -84 q-24 -52 -62 -182q-15 -51 -15 -81q0 -12 8.5 -19.5t22.5 -7.5q55 0 108 78q30 43 50.5 112t20.5 115z" />
<glyph unicode="&#x188;" horiz-adv-x="560" d="M361 435l17 63q10 35 39.5 56.5t77.5 21.5q54 0 93 -27t39 -74q0 -27 -17 -45t-44 -18q-25 0 -42.5 17t-17.5 40q0 20 11 36.5t11 20.5q0 19 -25 19q-65 0 -79 -57l-34 -136q-12 -51 -60 -51q-25 0 -41.5 15t-16.5 38q0 16 10.5 32t10.5 26q0 7 -7.5 12t-16.5 5 q-26 0 -47.5 -22.5t-45.5 -65.5q-53 -98 -53 -201q0 -43 19.5 -66t53.5 -23q32 0 59 20t63 71l28 -18l-38 -50q-13 -17 -34.5 -37.5t-42.5 -31.5q-35 -18 -83 -18q-70 0 -111.5 39.5t-41.5 111.5q0 134 105 239q83 85 180 85q48 0 81 -27z" />
<glyph unicode="&#x190;" horiz-adv-x="512" d="M566 174l39 -12q-56 -95 -135.5 -130.5t-185.5 -35.5q-42 0 -80.5 7t-73 22t-55.5 42.5t-21 65.5q0 73 54 136t129 85q-36 11 -61 43.5t-25 70.5q0 55 30.5 99t78 68.5t99.5 37.5t102 13q75 0 119 -18q39 -16 67.5 -43t28.5 -59q0 -29 -14 -48.5t-43 -19.5 q-30 0 -46.5 19t-24.5 60q-5 25 -26.5 40.5t-58.5 15.5q-60 0 -108.5 -54t-48.5 -137q0 -12 3.5 -24t16 -23.5t33.5 -11.5q17 0 50 5.5t48 5.5q22 0 38.5 -8t16.5 -25q0 -20 -26 -33.5t-51 -13.5q-6 0 -43.5 2.5t-45.5 2.5q-51 0 -94 -53.5t-43 -122.5q0 -78 113 -78 q44 0 69.5 2.5t60.5 12t63 33t51 61.5z" />
<glyph unicode="&#x192;" d="M86 440h107q28 126 89.5 196.5t144.5 70.5q47 0 78.5 -25t31.5 -62q0 -28 -16.5 -44.5t-43.5 -16.5q-24 0 -38.5 13.5t-14.5 36.5q0 21 20 40q9 9 9 13q0 15 -25 15q-32 0 -54 -37q-22 -39 -49 -200h118l-9 -44h-116l-27 -154q-35 -202 -101 -300t-167 -98 q-49 0 -79.5 24t-30.5 63q0 26 16 43t41 17q22 0 37.5 -14.5t15.5 -35.5q0 -17 -18 -38q-10 -10 -10 -17q0 -13 25 -13q24 0 38 15q34 34 55 144l70 364h-105z" />
<glyph unicode="&#x195;" horiz-adv-x="735" d="M467 338l-80 -251q-7 -19 -7 -28q0 -19 34 -19q83 0 148.5 84.5t65.5 165.5q0 20 -5.5 31t-18.5 22t-18 17q-19 23 -19 48q0 20 16.5 37t40.5 17q68 0 68 -112q0 -85 -38 -166.5t-112.5 -137.5t-165.5 -56q-55 0 -83.5 13.5t-28.5 51.5q0 23 9 52l76 232q6 18 6 30 q0 21 -20 21q-44 0 -108 -94q-36 -53 -58 -108t-61 -188h-121l152 562q10 37 10 47q0 33 -42 33h-22v27q99 9 209 30l-108 -416q74 105 118 142t95 37q37 0 56.5 -20t19.5 -55q0 -23 -8 -49z" />
<glyph unicode="&#x199;" d="M483 449v-25q-37 -5 -61.5 -18.5t-73.5 -57.5l-64 -58q19 -95 33 -145.5t24 -66t22 -15.5q28 0 64 64l22 -11q-32 -68 -65 -96t-73 -28q-47 0 -72.5 46.5t-50.5 176.5l-39 -27l-50 -188h-122l135 486q25 88 74.5 146.5t124.5 58.5q64 0 103 -28t39 -72q0 -28 -17 -46 t-44 -18q-25 0 -42.5 17t-17.5 40q0 20 11 36.5t11 20.5q0 19 -29 19q-50 0 -67 -65l-96 -357q95 75 130 109.5t35 53.5q0 12 -10.5 16.5t-39.5 6.5v25h206z" />
<glyph unicode="&#x19a;" horiz-adv-x="278" d="M290 699l-87 -313h51l-13 -46h-51l-45 -164q-22 -79 -22 -100q0 -15 15 -15q25 0 79 80l22 -14q-52 -80 -87 -108t-82 -28q-30 0 -49 18t-19 45q0 34 34 155l37 131h-55l12 46h56l24 82q34 118 34 145q0 30 -42 30q-11 0 -22 -1v27q98 9 210 30z" />
<glyph unicode="&#x19b;" horiz-adv-x="480" d="M452 568l-79 -56l53 -512h-40l-27 294l-193 -294h-150l322 474l-1 15l-184 -134v67l176 124q-3 25 -14.5 44t-23.5 19q-18 0 -18 -18q0 -2 1.5 -8t1.5 -10q0 -23 -17.5 -38t-42.5 -15q-28 0 -45 19t-17 48q0 35 27 57t70 22q85 0 110 -97l91 67v-68z" />
<glyph unicode="&#x19e;" horiz-adv-x="536" d="M178 263h1q51 75 73 103.5t49 54.5q43 41 100 41q73 0 73 -77q0 -34 -28 -116l-161 -474h-118l179 546q7 23 7 28q0 21 -24 21q-13 0 -33 -16.5t-36 -37.5q-47 -62 -79 -135t-66 -201h-121l57 204q45 164 45 179q0 14 -11.5 18.5t-43.5 5.5v27q90 3 199 27z" />
<glyph unicode="&#x1a0;" horiz-adv-x="722" d="M806 649q0 -32 -20 -53.5t-51 -27.5q-16 -4 -73 -4q29 -55 29 -120q0 -95 -49.5 -194.5t-130.5 -171.5q-108 -96 -248 -96q-108 0 -172 62.5t-64 176.5q0 101 51 202.5t135 169.5q114 92 236 92q118 0 187 -82q30 -18 52 -18q43 0 44 26q-41 25 -41 56q0 17 15 33t38 16 q26 0 44 -18t18 -49zM547 528q0 60 -27 91.5t-74 31.5q-91 0 -162 -120q-46 -78 -79.5 -189.5t-33.5 -198.5q0 -57 27.5 -92t74.5 -35q46 0 82 28t75 86q49 72 83 191t34 207z" />
<glyph unicode="&#x1a1;" horiz-adv-x="537" d="M307 462h4q87 0 130 -59q1 -1 10 -9.5t16.5 -13t15.5 -4.5q21 0 29 6.5t9 20.5q-42 26 -42 57q0 17 16 32t39 15q25 0 43 -17.5t18 -46.5q0 -33 -20 -55.5t-51 -28.5q-13 -4 -62 -4q6 -21 6 -44q0 -69 -29 -135.5t-76 -113.5q-75 -75 -175 -75q-73 0 -118.5 38.5 t-45.5 109.5q0 73 27 139t73 111q79 77 183 77zM349 372q0 28 -12.5 44.5t-34.5 16.5q-32 0 -60 -31q-43 -48 -71 -144.5t-28 -177.5q0 -64 49 -64q41 0 71 49q36 59 61 149.5t25 157.5z" />
<glyph unicode="&#x1a5;" horiz-adv-x="520" d="M197 347h1q41 64 77.5 89.5t80.5 25.5q53 0 81.5 -32.5t28.5 -88.5q0 -138 -85 -246t-192 -108q-38 0 -68 22l-12 -41q-24 -83 -24 -114q0 -18 13.5 -24.5t51.5 -7.5v-27h-250v27q36 0 50 15t28 71l138 545q56 220 195 220q64 0 103 -28t39 -72q0 -28 -17 -46t-44 -18 q-25 0 -42.5 17t-17.5 40q0 20 11 36.5t11 20.5q0 19 -28 19q-27 0 -43 -17.5t-27 -56.5zM341 336q0 55 -39 55q-40 0 -87 -71q-13 -19 -20 -37t-24 -76q-38 -128 -38 -149q0 -15 11.5 -25.5t27.5 -10.5q30 0 62 30q46 45 76.5 137t30.5 147z" />
<glyph unicode="&#x1aa;" horiz-adv-x="400" d="M233 455h-18q-36 0 -70 31t-34 83q0 47 37 81t87 34q60 0 102.5 -42.5t42.5 -89.5q0 -56 -27 -133l-155 -429q-10 -28 -24.5 -81.5t-14.5 -72.5q0 -13 0.5 -19.5t6 -13t15.5 -6.5q9 0 16 4.5t7 9.5q0 3 -9 18t-9 30q0 19 15 33t38 14q24 0 39 -17.5t15 -43.5 q0 -35 -29 -56.5t-80 -21.5q-68 0 -103 33t-35 92q0 48 27 124zM276 569q0 24 -18 41.5t-41 17.5q-26 0 -42 -18t-16 -42q0 -23 18 -40t39 -17q25 0 42.5 16.5t17.5 41.5z" />
<glyph unicode="&#x1ab;" horiz-adv-x="286" d="M289 407h-83l-34 -119q-53 -185 -53 -209q0 -18 16 -18q25 0 76 80l23 -15l-54 -197q-8 -28 -12.5 -42.5t-14 -38t-19.5 -35.5t-26 -21.5t-35 -9.5q-60 0 -91 27t-31 73q0 28 17 46t45 18q25 0 42 -17t17 -40q0 -20 -11 -36.5t-11 -20.5q0 -7 6.5 -13t18.5 -6q18 0 31 20 t28 74l38 136q-49 -52 -108 -52q-67 0 -67 65q0 28 25 115l67 236h-52v35q62 21 103 55t81 97h35l-39 -145h72v-42z" />
<glyph unicode="&#x1ad;" horiz-adv-x="360" d="M37 407v35q42 15 70 32q33 118 84 166q26 23 59 37t57 14q64 0 103.5 -28t39.5 -72q0 -28 -17 -46t-44 -18q-25 0 -42.5 17t-17.5 40q0 20 11 36.5t11 20.5q0 19 -28 19q-26 0 -42 -15t-25 -51l-39 -145h72v-42h-83l-34 -119q-53 -185 -53 -209q0 -18 16 -18q25 0 76 80 l23 -15q-49 -76 -86.5 -105.5t-83.5 -29.5q-67 0 -67 65q0 28 25 115l67 236h-52z" />
<glyph unicode="&#x1af;" horiz-adv-x="775" d="M537 669h227q55 0 55 29q-15 9 -21 13.5t-13.5 17.5t-7.5 30q0 14 15.5 29t38.5 15q26 0 44 -16.5t18 -47.5q0 -34 -22 -55t-54 -28q-5 -1 -41.5 -7t-50.5 -9q-30 -8 -44.5 -32t-38.5 -111l-65 -234q-25 -89 -52.5 -145t-68.5 -89q-59 -47 -166 -47q-101 0 -162 42.5 t-61 120.5q0 47 37 189l51 193q15 55 15 78q0 17 -9 25.5t-32 10.5l-32 3v25h311v-25q-46 -2 -64 -16.5t-30 -59.5l-81 -294q-28 -101 -28 -135q0 -101 122 -101q78 0 123 47q49 51 90 197l57 209q19 70 19 96q0 57 -79 57v25z" />
<glyph unicode="&#x1b0;" horiz-adv-x="556" d="M370 449h118q28 0 56 3q37 5 38 27q-42 12 -42 55q0 18 15.5 33.5t39.5 15.5q25 0 43 -17t18 -47q0 -33 -21.5 -58.5t-51.5 -31.5q-30 -7 -102 -7l-71 -239q-25 -82 -25 -103t14 -21q24 0 72 74l22 -13q-39 -67 -76.5 -98t-82.5 -31q-68 0 -68 60q0 31 26 110h-1 q-70 -103 -109.5 -136.5t-88.5 -33.5q-78 0 -78 79q0 27 22 106l37 128q17 62 17 75q0 24 -58 28v27q87 2 210 28l-93 -302q-16 -51 -16 -72q0 -25 24 -25q28 0 70 55q47 61 75.5 125t66.5 206z" />
<glyph unicode="&#x1ba;" horiz-adv-x="496" d="M458 423l-236 -167q15 4 45 4q56 0 87.5 -25t31.5 -67t-30.5 -82t-75.5 -62l-181 -90q-29 -14 -49.5 -37.5t-20.5 -48.5q0 -22 13.5 -35t35.5 -13q24 0 44.5 13.5t25.5 39.5q11 64 66 64q30 0 44.5 -15t14.5 -35q0 -51 -65 -80q-54 -24 -121 -24q-68 0 -107 29 q-32 26 -32 69q0 91 114 152q34 18 145 70q50 25 50 69q0 21 -20 32.5t-51 11.5q-62 0 -122 -47l-21 24l285 204h-189q-20 0 -50.5 -23.5t-44.5 -59.5h-26l76 156h364v-27z" />
<glyph unicode="&#x1bb;" d="M469 376l-16 -62h-111l-40 -36l-196 -167h138q63 0 94 14.5t57 65.5h24l-80 -191h-366v24l89 92q136 140 177 198h-233l15 62h262q29 53 29 100q0 117 -92 117q-76 0 -134 -86l-22 12q30 74 86 119t132 45q74 0 119 -46.5t45 -121.5q0 -71 -50 -139h73z" />
<glyph unicode="&#x1be;" d="M304 438l-10 -47q14 2 31 2q70 0 104 -42.5t34 -107.5q0 -110 -78.5 -181.5t-190.5 -71.5q-50 0 -100 26q-57 30 -57 80q0 17 14 32.5t39 15.5q54 0 71 -61q6 -21 10.5 -32t15.5 -21.5t28 -10.5q42 0 80.5 70t38.5 117q0 41 -27.5 65t-65.5 24h-32l38 143h-64l13 46h64 l15 57h52l-12 -57h111l-13 -46h-109z" />
<glyph unicode="&#x1c0;" horiz-adv-x="208" d="M278 740l-198 -740h-66l198 740h66z" />
<glyph unicode="&#x1c1;" horiz-adv-x="345" d="M278 740l-198 -740h-66l198 740h66zM415 740l-198 -740h-66l198 740h66z" />
<glyph unicode="&#x1c2;" horiz-adv-x="368" d="M438 476l-18 -66h-148l-23 -84h148l-17 -66h-148l-70 -260h-66l70 260h-152l17 66h152l23 84h-152l18 66h152l70 264h66l-70 -264h148z" />
<glyph unicode="&#x1c3;" horiz-adv-x="300" d="M168 203l-31 9q47 233 55 354q4 55 21.5 86.5t64.5 31.5q77 0 77 -73q0 -20 -6 -36t-26 -53q-97 -178 -155 -319zM214 70q0 -36 -24 -59.5t-60 -23.5q-35 0 -60 24.5t-25 59.5q0 37 23.5 61t60.5 24q36 0 60.5 -24.5t24.5 -61.5z" />
<glyph unicode="&#x1f0;" horiz-adv-x="350" d="M474 690l-162 -174h-82l-88 174h51l90 -97l134 97h57zM324 462l-37 -140l-79 -304q-31 -119 -81 -172t-126 -53q-47 0 -76 22t-29 55q0 22 14.5 37.5t34.5 15.5q22 0 35.5 -13.5t13.5 -35.5q0 -11 -7.5 -20t-7.5 -15q0 -15 24 -15q21 0 38 31t36 105l89 350q12 45 12 67 q0 30 -41 30h-22v27q136 12 209 28z" />
<glyph unicode="&#x1fa;" horiz-adv-x="667" d="M419 646l88 -523q11 -62 25 -78.5t61 -19.5v-25h-303v25q77 6 77 49q0 3 -2 15l-12 119h-215l-57 -96q-17 -28 -17 -50q0 -37 64 -37v-25h-195l-1 25q26 3 43 19.5t43 56.5l355 558q-44 24 -44 78q0 36 27 63t65 27q35 0 62 -26.5t27 -62.5q0 -38 -26.5 -65t-63.5 -27h-1 zM346 248l-37 243l-148 -243h185zM462 736q0 18 -11.5 30.5t-32.5 12.5q-18 0 -29.5 -12.5t-11.5 -29.5t12.5 -30t28.5 -13q18 0 31 12.5t13 29.5zM304 825l146 125q25 22 44 22q32 0 32 -33q0 -7 -2 -12t-9.5 -10.5t-13 -9t-20.5 -11.5l-132 -71h-45z" />
<glyph unicode="&#x1fb;" d="M387 623q0 -44 -31.5 -75.5t-75.5 -31.5q-48 0 -77 30t-29 78q0 44 31.5 74.5t75.5 30.5q47 0 76.5 -30.5t29.5 -75.5zM339 621q0 25 -17.5 42.5t-42.5 17.5q-23 0 -40 -17.5t-17 -41.5t17 -41t40 -17q25 0 42.5 17t17.5 40zM160 728l122 131q47 50 70 50q20 0 34 -14 t14 -33q0 -14 -8.5 -24t-30.5 -23l-152 -87h-49zM435 127l21 -15q-78 -126 -156 -126q-29 0 -46 16.5t-17 47.5q0 21 14 69q-42 -71 -80 -101.5t-84 -30.5q-49 0 -78.5 35t-29.5 92q0 117 87 231q89 117 186 117q32 0 49.5 -17t24.5 -55h1l17 59l111 7l-75 -251 q-30 -99 -30 -133q0 -15 12 -15t27 14.5t46 55.5zM303 373q0 20 -10.5 33.5t-26.5 13.5q-52 0 -108 -115q-25 -51 -40.5 -105.5t-15.5 -84.5q0 -57 43 -57q45 0 86 75q29 52 50.5 123.5t21.5 116.5z" />
<glyph unicode="&#x1fc;" horiz-adv-x="944" d="M918 669l-45 -190l-24 5l-2 40q-6 113 -162 113q-32 0 -43 -6t-16 -26l-65 -235h19q76 0 110.5 20.5t64.5 85.5l26 -4l-73 -273l-25 5q3 24 3 46q0 50 -24 66.5t-109 21.5l-63 -241q-5 -20 -5 -28q0 -37 68 -37q59 0 97.5 10.5t72.5 36.5q36 27 101 120l26 -3l-59 -196 h-527v25q38 6 53 22.5t28 58.5l43 149h-192l-114 -157q-15 -20 -15 -39q0 -16 14 -23.5t50 -10.5v-25h-195v25q19 2 30 9q9 3 59 68l364 472q20 27 20 44q0 14 -15.5 19.5t-64.5 8.5v23h589zM490 627h-12l-253 -333h173zM520 723l122 131q47 50 70 50q20 0 34 -14t14 -33 q0 -14 -8.5 -24t-30.5 -23l-152 -87h-49z" />
<glyph unicode="&#x1fd;" horiz-adv-x="722" d="M473 459l-20 -65q28 36 55.5 50.5t64.5 14.5q47 0 73.5 -23t26.5 -64q0 -64 -61.5 -116t-168.5 -69l-37 -6q-5 -25 -5 -46q0 -40 17.5 -62.5t48.5 -22.5q72 0 124 90l28 -17q-66 -136 -194 -136t-143 131q-42 -70 -82.5 -100t-90.5 -30q-52 0 -83 30t-31 88 q0 66 29.5 135t77.5 124q84 97 168 97q33 0 51 -14.5t31 -51.5l18 58zM418 231l-5 -17q65 8 117.5 60.5t52.5 113.5q0 41 -35 41q-72 0 -130 -198zM333 363q0 25 -13.5 40.5t-34.5 15.5q-43 0 -83 -58t-60.5 -125.5t-20.5 -111.5q0 -66 48 -66q47 0 93 79q30 50 50.5 117 t20.5 109zM300 516l122 131q47 50 70 50q20 0 34 -14t14 -33q0 -14 -8.5 -24t-30.5 -23l-152 -87h-49z" />
<glyph unicode="&#x1fe;" horiz-adv-x="722" d="M633 764l-63 -108q55 -26 88 -82t33 -121q0 -111 -48.5 -207.5t-134.5 -168.5q-114 -95 -240 -95q-45 0 -85 13l-70 -120h-48l79 136q-117 63 -117 201q0 122 58.5 231.5t156.5 175.5t207 66q40 0 82 -13l53 92h49zM182 77l324 553q-27 21 -63 21q-92 0 -165 -130 q-43 -77 -75 -190t-32 -190q0 -33 11 -64zM533 593l-325 -555q28 -22 67 -22q46 0 91.5 38t74.5 97q41 85 73.5 194.5t32.5 181.5q0 30 -14 66zM290 723l122 131q47 50 70 50q20 0 34 -14t14 -33q0 -14 -8.5 -24t-30.5 -23l-152 -87h-49z" />
<glyph unicode="&#x1ff;" d="M424 560l-65 -116q82 -40 82 -133q0 -127 -86.5 -225.5t-197.5 -98.5q-24 0 -51 8l-64 -114h-40l72 126q-77 44 -77 127q0 128 88.5 228t200.5 100q20 0 42 -6l59 104h37zM116 78l191 341q-14 14 -32 14q-48 0 -86 -68q-27 -49 -50 -136.5t-23 -142.5v-8zM321 377 l-193 -343q14 -18 37 -18q57 0 101 109q22 52 39 127t17 120q0 3 -1 5zM139 516l122 131q47 50 70 50q20 0 34 -14t14 -33q0 -14 -8.5 -24t-30.5 -23l-152 -87h-49z" />
<glyph unicode="&#x237;" horiz-adv-x="278" d="M239 462l-116 -444q-31 -119 -81 -172t-126 -53q-47 0 -76 22t-29 55q0 22 14.5 37.5t34.5 15.5q22 0 35.5 -13.5t13.5 -35.5q0 -11 -7.5 -20t-7.5 -15q0 -15 24 -15q21 0 38 31t36 105l89 350q12 45 12 67q0 30 -41 30h-22v27q136 12 209 28z" />
<glyph unicode="&#x250;" horiz-adv-x="512" d="M50 395l-10 21q68 57 128 57q36 0 49.5 -15t13.5 -54q95 69 178 69t83 -69q0 -93 -99 -149q-58 -33 -221 -76l-18 -68q-7 -30 -7 -43q0 -50 63 -50q32 0 59 9t27 26q0 11 -15 30t-15 35q0 28 19 45t50 17q30 0 47 -18.5t17 -52.5q0 -58 -65 -90.5t-156 -32.5 q-79 0 -122 26t-43 74q0 14 5 34l70 261q2 10 2 13q0 15 -15 15q-8 0 -25 -14zM221 362l-40 -148q159 45 159 148q0 40 -38 40q-42 0 -81 -40z" />
<glyph unicode="&#x251;" horiz-adv-x="612" d="M592 473l-104 -388q-2 -12 -2 -14q0 -11 10 -11q16 0 61 7v-19l-214 -56l14 53q-1 -1 -10 -7l-15 -11q-6 -4 -18 -10.5t-23.5 -11.5t-26.5 -9.5t-32.5 -7t-35.5 -2.5q-23 0 -47 5t-54.5 19.5t-50 47.5t-19.5 81q0 127 98.5 230.5t226.5 103.5q67 0 109 -46l119 46h14z M374 109l62 231q4 13 4 27q0 35 -24 54.5t-54 19.5q-64 0 -129 -87t-65 -190q0 -60 32 -90t78 -30q25 0 57 19.5t39 45.5z" />
<glyph unicode="&#x252;" horiz-adv-x="612" d="M274 467l-14 -53q1 1 10 8l15 10q6 4 18 10.5t23.5 11.5t26.5 9.5t32.5 7t35.5 2.5q23 0 47 -5t54.5 -19.5t50 -47.5t19.5 -81q0 -128 -98.5 -231t-226.5 -103q-67 0 -109 46l-119 -46h-14l104 388q2 12 2 14q0 11 -10 11q-8 0 -61 -7v18zM243 350l-62 -231 q-4 -13 -4 -27q0 -35 24 -54.5t54 -19.5q64 0 129 87t65 190q0 60 -32 90t-78 30q-25 0 -57 -19.5t-39 -45.5z" />
<glyph unicode="&#x253;" d="M6 129l103 358q35 120 78.5 162t119.5 42q64 0 103 -28t39 -72q0 -28 -17 -46t-44 -18q-25 0 -42.5 17t-17.5 40q0 20 11 36.5t11 20.5q0 19 -28 19q-26 0 -42.5 -17.5t-27.5 -58.5l-59 -211q65 89 144 89q47 0 77 -37.5t30 -93.5q0 -135 -97 -239.5t-223 -104.5 q-53 0 -95.5 17.5t-42.5 43.5q0 9 20 81zM319 325q0 69 -41 69q-52 0 -92 -84q-24 -52 -62 -182q-15 -51 -15 -81q0 -12 8.5 -19.5t22.5 -7.5q55 0 108 78q30 43 50.5 112t20.5 115z" />
<glyph unicode="&#x254;" horiz-adv-x="444" d="M69 307l-28 18l38 51q13 16 34.5 36.5t42.5 31.5q34 18 83 18q70 0 111.5 -39.5t41.5 -111.5q0 -134 -105 -239q-83 -85 -180 -85q-46 0 -79 25.5t-33 64.5q0 32 17 51.5t45 19.5q25 0 41.5 -15t16.5 -38q0 -16 -10.5 -32t-10.5 -26q0 -7 7.5 -12t16.5 -5q26 0 47.5 22.5 t45.5 65.5q53 98 53 201q0 43 -19.5 66t-53.5 23q-32 0 -59 -20t-63 -71z" />
<glyph unicode="&#x255;" horiz-adv-x="444" d="M-1 -157l112 147q-116 23 -116 148q0 134 105 239q83 85 180 85q46 0 79 -25.5t33 -64.5q0 -32 -17 -51.5t-45 -19.5q-25 0 -41.5 15t-16.5 38q0 16 10.5 32t10.5 26q0 7 -7.5 12t-16.5 5q-26 0 -47.5 -22.5t-45.5 -65.5q-53 -98 -53 -201q0 -61 38 -81q91 115 167 115 q36 0 57 -21t21 -50q0 -51 -46.5 -86t-116.5 -35h-25q-45 0 -63 3l-108 -142h-48zM361 99q0 30 -44 30q-45 0 -120 -86q31 -16 77 -16q41 0 64 22t23 50z" />
<glyph unicode="&#x256;" d="M517 699l-199 -725q-32 -110 -32 -120q0 -29 18 -42.5t44 -13.5q28 0 28 19q0 4 -11 20.5t-11 36.5q0 23 17.5 40t42.5 17q27 0 44 -18t17 -46q0 -45 -39.5 -72.5t-103.5 -27.5q-69 0 -102 26.5t-33 83.5q0 43 20 116l34 125q-72 -131 -166 -131q-48 0 -77 32.5t-29 92.5 q0 72 37 150t94 132q70 68 138 68q46 0 75 -33l18 64q29 102 29 122q0 28 -41 28h-21v27q129 10 209 29zM308 371q0 21 -10.5 35t-26.5 14q-57 1 -114 -112q-24 -48 -39 -100.5t-15 -85.5q0 -28 11.5 -46t29.5 -18q45 0 86 75q27 48 52.5 126.5t25.5 111.5z" />
<glyph unicode="&#x257;" horiz-adv-x="570" d="M323 429l18 64q11 37 18 58.5t21.5 50t30.5 43.5t41.5 26.5t58.5 11.5q64 0 103 -28t39 -72q0 -28 -17 -46t-44 -18q-25 0 -42.5 17t-17.5 40q0 20 11 36.5t11 20.5q0 19 -28 19q-6 0 -10.5 -1.5t-11 -11.5t-12.5 -30l-129 -471q-14 -53 -14 -63q0 -5 3.5 -10t7.5 -5 q24 0 68 71l22 -16q-79 -126 -150 -126q-28 0 -44 16t-16 45q0 20 11 68q-72 -131 -166 -131q-48 0 -77 32.5t-29 92.5q0 72 37 150t94 132q70 68 138 68q46 0 75 -33zM308 371q0 21 -10.5 35t-26.5 14q-57 1 -114 -112q-24 -48 -39 -100.5t-15 -85.5q0 -28 11.5 -46 t29.5 -18q45 0 86 75q27 48 52.5 126.5t25.5 111.5z" />
<glyph unicode="&#x258;" horiz-adv-x="444" d="M5 126l37 17q7 -48 34.5 -70t64.5 -22q40 0 78 39.5t50 91.5q-88 21 -128.5 50.5t-40.5 85.5q0 60 51 102t116 42q72 0 113 -48t41 -124q0 -114 -81 -208.5t-185 -94.5q-63 0 -106 34.5t-44 104.5zM306 365q0 64 -39 64q-32 0 -53.5 -41t-21.5 -74q0 -37 23 -63t63 -37 q28 94 28 151z" />
<glyph unicode="&#x259;" horiz-adv-x="444" d="M86 306l-29 17q78 139 195 139q67 0 106.5 -37.5t39.5 -109.5q0 -124 -89.5 -226t-198.5 -102q-48 0 -76.5 24t-28.5 63q0 63 69 122q32 27 73.5 42.5t114.5 28.5q6 30 6 49q0 82 -64 82q-32 0 -57.5 -20t-60.5 -72zM255 235q-68 -15 -113 -64.5t-45 -111.5q0 -39 31 -39 q71 0 127 215z" />
<glyph unicode="&#x25a;" horiz-adv-x="626" d="M626 279l-18 -27q-16 -25 -43 -41t-55 -16q-65 0 -65 54q0 16 4 29l26 93l-78 -40q1 -5 1 -16q0 -124 -89.5 -226t-198.5 -102q-48 0 -76.5 24t-28.5 63q0 96 107 149l156 80v16q0 79 -64 79q-32 0 -57.5 -20t-60.5 -72l-29 17q78 139 195 139q114 0 140 -96l127 65 l10 -12l-45 -142q-2 -10 -2 -22q0 -23 37 -23q39 0 64 35l17 25zM261 262l-89 -46q-41 -21 -58 -67.5t-17 -89.5q0 -39 31 -39q40 0 75 68t58 174z" />
<glyph unicode="&#x25b;" horiz-adv-x="444" d="M394 102l19 -18q-61 -61 -116 -79.5t-124 -18.5q-70 0 -119 26.5t-49 79.5q0 55 45.5 98t110.5 60q-66 34 -66 80q0 53 35.5 87t82 46t103.5 12q40 0 75 -11q37 -12 64 -36t27 -48q0 -50 -49 -50q-28 0 -42 14.5t-30 55.5q-15 38 -55 38q-37 0 -64 -28.5t-27 -76.5 q0 -28 24.5 -48.5t49.5 -20.5h17v-37h-53q-41 0 -74.5 -39t-33.5 -89q0 -30 19 -47t51 -17q52 0 92.5 13.5t86.5 53.5z" />
<glyph unicode="&#x25c;" horiz-adv-x="480" d="M198 264h24q49 0 88 38t39 89q0 47 -53 47q-38 0 -51 -33q-17 -44 -30.5 -59.5t-42.5 -15.5q-50 0 -50 51q0 24 29.5 49t67.5 36q33 9 78 9q72 0 122 -21t50 -69q0 -49 -32 -79.5t-92 -55.5q40 -11 64 -38t24 -62q0 -41 -23.5 -74t-61 -52t-78 -28.5t-79.5 -9.5 q-33 0 -55.5 3t-49 12t-47 30t-34.5 53l27 18q25 -40 58 -53.5t85 -13.5q50 0 86.5 39.5t36.5 92.5q0 28 -15 44t-42 16h-43v37z" />
<glyph unicode="&#x25d;" horiz-adv-x="689" d="M689 289l-18 -27q-16 -25 -43 -41t-55 -16q-65 0 -65 54q0 16 4 29l26 93l-78 -40q-20 -52 -115 -91q40 -11 64 -38t24 -62q0 -41 -23.5 -74t-61 -52t-78 -28.5t-79.5 -9.5q-33 0 -55.5 3t-49 12t-47 30t-34.5 53l27 18q25 -40 58 -53.5t85 -13.5q50 0 86.5 39.5 t36.5 92.5q0 28 -15 44t-42 16h-43v37h24q49 0 88 38t39 89q0 47 -53 47q-38 0 -51 -33q-17 -44 -30.5 -59.5t-42.5 -15.5q-50 0 -50 51q0 24 29.5 49t67.5 36q33 9 78 9q172 0 172 -92l113 58l10 -12l-45 -142q-2 -10 -2 -22q0 -23 37 -23q40 0 64 35l17 25z" />
<glyph unicode="&#x25e;" horiz-adv-x="486" d="M475 385q0 -48 -32 -79.5t-92 -55.5q40 -11 64 -38t24 -62q0 -52 -38 -90.5t-92.5 -56t-114.5 -17.5q-28 0 -56.5 7t-59.5 23t-51 50t-20 82q0 130 91.5 228.5t202.5 98.5q77 0 125.5 -21.5t48.5 -68.5zM204 264h24q49 0 88 38t39 89q0 47 -52 47q-83 0 -152.5 -86.5 t-69.5 -187.5q0 -59 27.5 -94t71.5 -35q50 0 87 39t37 94q0 28 -15 43.5t-42 15.5h-43v37z" />
<glyph unicode="&#x25f;" horiz-adv-x="367" d="M364 462v-24q-46 -1 -60 -62l-30 -122h51l-13 -46h-50l-49 -187q-30 -114 -78.5 -171t-129.5 -57q-47 0 -76 22t-29 55q0 22 14.5 37.5t34.5 15.5q22 0 35.5 -13.5t13.5 -35.5q0 -11 -7.5 -20t-7.5 -15q0 -15 24 -15q21 0 38 31t36 105l63 248h-109l13 46h108l31 124 q4 13 4 27q0 33 -44 33v24h217z" />
<glyph unicode="&#x260;" horiz-adv-x="720" d="M258 -68l43 154q-68 -99 -155 -99q-42 0 -72 29.5t-30 105.5q0 68 39 147.5t103 136t128 56.5q52 0 76 -33q51 161 97 203q56 51 123 51q63 0 102 -28t39 -72q0 -28 -17 -46t-44 -18q-25 0 -42.5 17t-17.5 40q0 20 11 36.5t11 20.5q0 19 -29 19q-28 0 -45.5 -17.5 t-29.5 -62.5l-164 -588q-63 -229 -265 -229q-69 0 -121 31q-50 30 -50 80q0 26 17 43t45 17q25 0 42 -15.5t17 -38.5q0 -15 -11.5 -33.5t-11.5 -25.5q0 -27 41 -27q56 0 105.5 44t65.5 102zM368 369q0 50 -35 50q-34 0 -73.5 -54t-65 -124t-25.5 -120q0 -22 4 -35.5t12 -19 t13.5 -6.5t16.5 -1q18 0 42.5 23t45.5 64q24 48 44.5 116t20.5 107z" />
<glyph unicode="&#x261;" horiz-adv-x="549" d="M520 472l-136 -488q-65 -229 -265 -229q-69 0 -121 31q-50 30 -50 80q0 26 17 43t45 17q25 0 42 -15.5t17 -38.5q0 -15 -11.5 -33.5t-11.5 -25.5q0 -27 41 -27q56 0 105.5 44t65.5 102l43 154q-68 -99 -155 -99q-42 0 -72 29.5t-30 105.5q0 68 39 147.5t103 136t128 56.5 q30 0 52 -9.5t47 -35.5l91 55h16zM368 369q0 50 -35 50q-34 0 -73.5 -54t-65 -124t-25.5 -120q0 -22 4 -35.5t12 -19t13.5 -6.5t16.5 -1q18 0 42.5 23t45.5 64q24 48 44.5 116t20.5 107z" />
<glyph unicode="&#x262;" horiz-adv-x="561" d="M544 460l-42 -157h-18q-10 40 -17.5 60t-24.5 40q-33 37 -90 37q-80 0 -141.5 -99t-61.5 -214q0 -56 22.5 -86t79.5 -30q68 0 83 56l16 59q3 12 3 21q0 14 -13.5 21t-49.5 9v16h250v-16q-40 -4 -55 -18.5t-25 -49.5l-22 -78q-87 -42 -211 -42q-95 0 -150.5 45t-55.5 124 q0 120 100.5 212t225.5 92q49 0 107 -24q17 -9 30 -9q19 0 41 31h19z" />
<glyph unicode="&#x263;" horiz-adv-x="444" d="M236 188l11 -81q89 166 89 210q0 13 -25 34q-31 25 -31 54q0 21 16 39t42 18q25 0 43.5 -19t18.5 -45q0 -53 -40.5 -149t-103.5 -200l17 -122q4 -24 4 -68q0 -43 -38.5 -68t-92.5 -25q-73 0 -73 67q0 33 31 78l50 72q-9 87 -54 303q-21 94 -40 113q-8 8 -14.5 10t-25.5 2 v27q86 8 150 24q45 -116 66 -274zM162 -69l-30 -47q-19 -29 -19 -55q0 -30 26 -30q32 0 32 49q0 19 -3 37z" />
<glyph unicode="&#x264;" horiz-adv-x="493" d="M240 263l102 116q63 71 90 71q25 0 40.5 -18.5t15.5 -43.5q0 -32 -16 -73h-10q-11 42 -46 42q-32 0 -72 -47l-83 -94l11 -28l14 -36q4 -12 8.5 -31t4.5 -32q0 -48 -46.5 -73.5t-99.5 -25.5q-33 0 -54.5 15.5t-21.5 46.5q0 38 41 83l49 52l-48 117l-11 24q-4 9 -14.5 19 t-23.5 10q-15 0 -26 -12.5t-15 -29.5h-10q-9 22 -9 37q0 39 31 68.5t70 29.5q52 0 82 -73zM208 65q0 20 -21 70l-10 -10l-11 -11q-2 -2 -9 -10t-8.5 -12t-5.5 -11.5t-5 -14.5t-1 -15q0 -28 28 -28q17 0 30 13t13 29z" />
<glyph unicode="&#x265;" horiz-adv-x="556" d="M498 450l-152 -562q-10 -37 -10 -47q0 -33 42 -33h22v-27q-99 -9 -209 -30l108 416q-74 -105 -118 -142t-95 -37q-36 0 -56 20t-20 55q0 24 7 46l81 254q3 8 3 12q0 16 -17 16t-75 -83l-22 15q50 77 85.5 106.5t81.5 29.5q30 0 48.5 -17t18.5 -47q0 -23 -10 -55l-75 -229 q-6 -18 -6 -30q0 -21 20 -21q44 0 108 94q36 53 58 108t61 188h121z" />
<glyph unicode="&#x266;" horiz-adv-x="556" d="M476 142l22 -15q-50 -77 -85.5 -106.5t-81.5 -29.5q-30 0 -48.5 17t-18.5 47q0 25 7 46l78 238q6 18 6 30q0 21 -20 21q-44 0 -108 -94q-36 -53 -58 -108t-61 -188h-121l150 555q35 128 182 128q64 0 103 -28t39 -72q0 -28 -17 -46t-44 -18q-25 0 -42.5 17t-17.5 40 q0 20 11 36.5t11 20.5q0 19 -29 19q-51 0 -69 -69l-78 -300q74 105 118 142t95 37q37 0 56.5 -20t19.5 -55q0 -21 -7 -46l-81 -254q-3 -8 -3 -12q0 -16 17 -16t75 83z" />
<glyph unicode="&#x267;" horiz-adv-x="533" d="M264 583l-78 -300q74 105 118 142t95 37q37 0 56.5 -20t19.5 -55q0 -21 -8 -49l-108 -338q-31 -95 -61 -129q-33 -39 -67.5 -57.5t-84.5 -18.5q-62 0 -101 28t-39 72q0 27 17 44t45 17q25 0 42 -15.5t17 -38.5q0 -15 -11.5 -33t-11.5 -26q0 -17 34 -17q44 0 65 65 l146 448q6 18 6 30q0 21 -20 21q-44 0 -108 -94q-36 -53 -58 -108t-61 -188h-121l150 555q35 128 182 128q64 0 103 -28t39 -72q0 -28 -17 -46t-44 -18q-25 0 -42.5 17t-17.5 40q0 20 11 36.5t11 20.5q0 19 -29 19q-51 0 -69 -69z" />
<glyph unicode="&#x268;" horiz-adv-x="278" d="M262 616q0 -28 -19.5 -47t-48.5 -19q-28 0 -47 20t-19 49q0 25 20 45t45 20q28 0 48.5 -20t20.5 -48zM216 142l22 -14q-48 -79 -85 -108t-83 -29q-68 0 -68 63q0 22 15 76l25 93h-52l13 46h51l18 64q8 27 8 45q0 29 -46 29h-14v27q118 9 203 28l-53 -193h57l-13 -46h-56 l-26 -95q-9 -31 -9 -51q0 -16 15 -16q21 0 64 61z" />
<glyph unicode="&#x269;" horiz-adv-x="253" d="M225 95l12 -17l-15 -17q-14 -17 -18 -21t-19 -17t-25.5 -17t-28 -9t-36.5 -5q-93 0 -93 79q0 14 12 59l56 207q7 28 7 40q0 11 -6 11q-16 0 -47 -10l8 27q13 5 40 14l41 14l34 11q19 6 31.5 9t19.5 3q15 0 15 -14q0 -6 -2 -14l-82 -300q-9 -33 -9 -48q0 -30 22 -30 q37 0 83 45z" />
<glyph unicode="&#x26a;" horiz-adv-x="304" d="M321 462v-17q-38 -2 -54.5 -12.5t-23.5 -39.5l-86 -320q-5 -18 -5 -27q0 -16 12 -21.5t43 -7.5v-17h-239v17q40 4 55.5 14.5t23.5 41.5l85 320q3 12 3 21q0 16 -12 22.5t-40 8.5v17h238z" />
<glyph unicode="&#x26b;" horiz-adv-x="320" d="M327 447h41q-16 -63 -44 -91t-73 -28q-18 0 -26 2l-43 -154q-22 -79 -22 -100q0 -15 15 -15q25 0 79 80l22 -14q-52 -80 -87 -108t-82 -28q-30 0 -49 18t-19 45q0 34 34 155l45 159q-7 2 -21 2q-17 0 -28 -9t-20 -32h-40q10 54 40 86t73 32q7 0 19 -2l34 129q6 24 6 39 q0 30 -42 30q-11 0 -22 -1v27q98 9 210 30l-80 -288q18 -6 29 -6q17 0 28.5 9t22.5 33z" />
<glyph unicode="&#x26c;" horiz-adv-x="445" d="M412 384l5 -21q-7 -8 -20 -21t-54.5 -44t-84.5 -50l-20 -72q-22 -79 -22 -100q0 -15 15 -15q25 0 79 80l22 -14q-52 -80 -87 -108t-82 -28q-30 0 -49 18t-19 45q0 34 34 155l6 21q-11 -1 -28 -1q-40 0 -65 20.5t-25 58.5q0 66 48.5 108t103.5 42q15 0 30 -5l29 105 q9 36 9 55q0 30 -42 30q-11 0 -22 -1v27q98 9 210 30l-111 -399q59 20 140 84zM148 276l40 141q-10 4 -25 4q-31 0 -58.5 -32t-27.5 -65q0 -38 41 -47q5 -1 30 -1z" />
<glyph unicode="&#x26d;" horiz-adv-x="291" d="M290 699l-224 -809q-5 -18 -5 -33q0 -25 10.5 -42t28.5 -17q32 0 32 17q0 7 -11.5 26t-11.5 33q0 23 17 38.5t42 15.5q28 0 45 -17t17 -44q0 -44 -39 -72t-101 -28q-67 0 -102 33t-35 91q0 26 7 51l150 526q34 118 34 145q0 30 -42 30q-11 0 -22 -1v27q98 9 210 30z" />
<glyph unicode="&#x26e;" horiz-adv-x="623" d="M585 423l-209 -191h17q46 0 79 -37t33 -100q0 -140 -97 -235.5t-204 -95.5q-41 0 -82 10.5t-61 24.5q-44 31 -44 69q0 20 14.5 35t44.5 15q57 0 67 -67q4 -22 24.5 -36t44.5 -14q43 0 83 54.5t61.5 121.5t21.5 116q0 75 -56 75q-19 0 -43 -23l-102 -98q-58 -56 -107 -56 q-32 0 -50 18.5t-18 43.5q0 37 24 120l105 370q13 45 13 70q0 30 -40 30q-16 0 -24 -1v27q108 11 210 30l-69 -249h364v-27zM476 377h-211q-17 0 -46.5 -21t-37.5 -50l-48 -174q-10 -34 -10 -47q0 -19 11 -19q4 0 14.5 8.5t27.5 25.5l17 16z" />
<glyph unicode="&#x26f;" horiz-adv-x="778" d="M723 453l-66 -232q-36 -125 -36 -150t38 -25h18v-27q-130 -10 -200 -27l63 199h-1q-70 -108 -104 -142q-58 -58 -114 -58q-31 0 -49 17.5t-18 49.5q0 37 26 105q-61 -99 -102.5 -135.5t-95.5 -36.5q-35 0 -56 20t-21 51q0 35 9 61l72 214q8 25 8 39q0 18 -16 18 q-22 0 -58 -58q-6 -10 -12 -18l-22 13q38 71 75.5 101t85.5 30q68 0 68 -66q0 -26 -11 -62l-72 -219q-6 -19 -6 -30q0 -8 6.5 -14.5t15.5 -6.5q48 0 113 116q27 48 42.5 89t58.5 184h120l-65 -207q-42 -134 -42 -160q0 -22 17 -22q23 0 63 47q43 51 75 126t72 216h121z" />
<glyph unicode="&#x270;" horiz-adv-x="778" d="M723 453l-195 -686h-123l135 424h-1q-68 -105 -100 -138q-60 -62 -118 -62q-31 0 -49 17.5t-18 49.5q0 37 26 105q-61 -99 -102.5 -135.5t-95.5 -36.5q-35 0 -56 20t-21 51q0 35 9 61l72 214q8 25 8 39q0 18 -16 18q-22 0 -58 -58q-6 -10 -12 -18l-22 13q38 71 75.5 101 t85.5 30q68 0 68 -66q0 -26 -11 -62l-72 -219q-6 -19 -6 -30q0 -8 6.5 -14.5t15.5 -6.5q48 0 113 116q27 48 42.5 89t58.5 184h120l-65 -207q-42 -134 -42 -160q0 -22 17 -22q23 0 63 47q43 51 75 126t72 216h121z" />
<glyph unicode="&#x271;" horiz-adv-x="759" d="M169 262h1q70 108 104 142q58 58 114 58q32 0 49.5 -18t17.5 -49q0 -37 -26 -105q61 99 102.5 135.5t95.5 36.5q35 0 56 -20t21 -51q0 -35 -9 -62l-140 -422q-16 -45 -32 -64q-61 -76 -164 -76q-62 0 -101 28t-39 72q0 27 17 44t45 17q25 0 42 -16t17 -39 q0 -13 -11.5 -32t-11.5 -27q0 -16 34 -16q49 0 70 65l156 475q6 20 6 30q0 8 -6.5 14.5t-15.5 6.5q-48 0 -113 -116q-27 -48 -42.5 -89t-58.5 -184h-120l65 207q42 134 42 160q0 22 -17 22q-23 0 -63 -47q-43 -51 -75 -126t-72 -216h-121l66 232q36 125 36 150t-38 25h-18 v27q130 10 200 27z" />
<glyph unicode="&#x272;" horiz-adv-x="694" d="M610 135l22 -13q-41 -72 -77.5 -101.5t-82.5 -29.5q-68 0 -68 60q0 47 26 125l55 165q6 20 6 28q0 21 -24 21q-13 0 -33 -16.5t-36 -37.5q-79 -103 -125 -264l-46 -161q-21 -76 -66 -110t-130 -34q-62 0 -101 28t-39 72q0 27 17 44t45 17q25 0 42 -15.5t17 -38.5 q0 -14 -11.5 -33t-11.5 -26q0 -17 32 -17q25 0 44.5 16.5t28.5 48.5l95 341q45 164 45 179q0 14 -11.5 18.5t-43.5 5.5v27q90 3 199 27l-62 -198h1q51 75 73 103.5t49 54.5q43 41 100 41q73 0 73 -77q0 -34 -28 -116l-35 -104q-24 -71 -24 -89q0 -17 14 -17q13 0 27 15 t44 61z" />
<glyph unicode="&#x273;" horiz-adv-x="505" d="M446 269l-127 -379q-7 -21 -7 -46q0 -19 14 -32.5t30 -13.5q32 0 32 17q0 6 -11.5 25.5t-11.5 33.5q0 23 17 38.5t42 15.5q28 0 45 -17t17 -44q0 -44 -39 -72t-101 -28q-67 0 -103 34t-36 93q0 25 15 70l124 377q7 23 7 28q0 21 -24 21q-13 0 -33 -16.5t-36 -37.5 q-47 -62 -79 -135t-66 -201h-121l57 204q45 164 45 179q0 14 -11.5 18.5t-43.5 5.5v27q90 3 199 27l-62 -198h1q51 75 73 103.5t49 54.5q43 41 100 41q73 0 73 -77q0 -34 -28 -116z" />
<glyph unicode="&#x274;" horiz-adv-x="588" d="M614 462v-17q-40 -5 -53.5 -15t-21.5 -41l-107 -401h-23l-244 372l-73 -271q-6 -21 -6 -34q0 -19 13.5 -27t47.5 -11v-17h-174v17q43 5 58.5 15.5t23.5 41.5l86 323q-27 48 -52 48v17h167l190 -294l55 205q6 21 6 35q0 19 -13 27t-44 10v17h164z" />
<glyph unicode="&#x275;" d="M441 311q0 -69 -29 -135.5t-76 -113.5q-75 -75 -175 -75q-73 0 -118.5 38.5t-45.5 109.5q0 73 27 139t73 111q79 77 183 77q75 0 118 -41t43 -110zM143 253h164q15 66 15 119q0 28 -12.5 44.5t-34.5 16.5q-32 0 -60 -31q-44 -48 -72 -149zM295 207h-165q-14 -68 -14 -127 q0 -64 49 -64q41 0 71 49q34 54 59 142z" />
<glyph unicode="&#x276;" horiz-adv-x="749" d="M751 457l-36 -137h-18q1 9 1 25q0 49 -29 70q-25 18 -111 18q-36 0 -41 -18l-45 -167q59 3 81 19t52 80h18l-62 -229h-17q3 22 3 41q0 35 -18 49t-63 16l-46 -170q-3 -8 -3 -14q0 -10 10 -14t36 -4q82 0 129 34q46 35 85 86h20l-69 -144h-307q-60 0 -78 -1q-20 -2 -30 -2 q-190 0 -190 160q0 80 44 152.5t115 113.5q73 41 156 41q3 0 18 -1t41.5 -2.5t55.5 -1.5h298zM332 142l53 197q12 43 12 63q0 10 -3 18q-7 18 -50 18q-54 0 -103.5 -51.5t-78 -129.5t-28.5 -155q0 -43 20.5 -63t68.5 -20q46 0 68 19q17 16 41 104z" />
<glyph unicode="&#x277;" horiz-adv-x="685" d="M626 265q0 -102 -76 -184.5t-180 -82.5q-58 0 -94 48q-53 -48 -134 -48q-68 0 -106.5 39.5t-38.5 101.5q0 58 25 111.5t65.5 94t91.5 71t105 46t103 15.5q99 0 169 -58t70 -154zM489 314q0 69 -29.5 104t-79.5 35q-56 0 -113 -47.5t-95 -129t-38 -169.5q0 -27 11 -45 t31 -18q26 0 55 17.5t29 55.5q0 36 -2.5 75.5t-2.5 49.5q0 31 22 58t61 27q53 0 53 -66q0 -28 -30 -78.5t-30 -85.5q0 -24 10.5 -38.5t27.5 -14.5q30 0 54.5 32.5t38 79.5t20.5 89t7 69z" />
<glyph unicode="&#x278;" horiz-adv-x="691" d="M483 591l-41 -156q75 -8 132.5 -50.5t57.5 -114.5t-51.5 -135t-121.5 -97.5t-134 -38.5l-37 -138q-6 -23 -6 -36q0 -18 12.5 -24t43.5 -8v-24h-277v24q42 3 60 17t29 54l36 135q-75 5 -132 53.5t-57 121.5q0 57 31 106.5t78.5 81.5t99 51t97.5 22l41 153q5 18 5 34 q0 20 -12.5 28.5t-43.5 10.5v24h277v-24q-42 -2 -59 -15t-28 -55zM432 398l-97 -360q61 27 109 100t48 145q0 89 -60 115zM196 39l97 359q-57 -18 -106.5 -89t-49.5 -143q0 -43 16 -77t43 -50z" />
<glyph unicode="&#x279;" horiz-adv-x="427" d="M289 462h121q-102 -345 -102 -382q0 -14 11.5 -19.5t44.5 -5.5v-27q-131 -11 -200 -28l65 209h-1q-60 -121 -95.5 -165t-75.5 -44q-26 0 -41.5 18t-15.5 48q0 31 16.5 52t41.5 21q22 0 37.5 -19t23.5 -19q23 0 65 76q36 65 74 186z" />
<glyph unicode="&#x27a;" horiz-adv-x="493" d="M476 699l-139 -489q-44 -156 -44 -158q0 -25 71 -25v-27h-200l65 209h-1q-60 -121 -95.5 -165t-75.5 -44q-26 0 -41.5 18t-15.5 48q0 31 16.5 52t41.5 21q22 0 37.5 -19t23.5 -19q23 0 65 76q44 79 74 186l56 196q10 33 10 54q0 30 -36 30q-11 0 -22 -1v28q109 10 210 29 z" />
<glyph unicode="&#x27b;" horiz-adv-x="436" d="M409 462l-162 -569q-4 -12 -4 -28q0 -28 12.5 -47.5t30.5 -19.5q33 0 33 16q0 8 -11.5 26.5t-11.5 33.5q0 23 17 38.5t42 15.5q28 0 45 -17t17 -44q0 -44 -39 -72t-101 -28q-68 0 -104 34.5t-36 94.5q0 15 5 33l87 280h-1q-60 -121 -95.5 -165t-75.5 -44q-26 0 -41.5 18 t-15.5 48q0 31 16.5 52t41.5 21q22 0 37.5 -19t23.5 -19q23 0 65 76q36 65 74 186l31 99h120z" />
<glyph unicode="&#x27c;" horiz-adv-x="389" d="M160 253h1q60 121 95.5 165t75.5 44q26 0 41.5 -18t15.5 -48q0 -31 -16.5 -52t-41.5 -21q-22 0 -37.5 19t-23.5 19q-23 0 -65 -76q-36 -65 -74 -186l-103 -332h-115l134 468q34 117 34 147q0 14 -11.5 19.5t-44.5 5.5v27q131 11 200 28z" />
<glyph unicode="&#x27d;" horiz-adv-x="389" d="M160 253h1q60 121 95.5 165t75.5 44q26 0 41.5 -18t15.5 -48q0 -31 -16.5 -52t-41.5 -21q-22 0 -37.5 19t-23.5 19q-22 0 -65 -76q-15 -27 -23 -44.5t-26.5 -70.5t-51.5 -156q-45 -141 -45 -155q0 -25 12.5 -43t30.5 -18q32 0 32 17q0 6 -11.5 25.5t-11.5 33.5 q0 23 17 38.5t42 15.5q28 0 45 -17t17 -44q0 -44 -39 -72t-101 -28q-67 0 -103 33.5t-36 92.5q0 13 5 33l91 316q32 110 32 140q0 14 -11.5 19.5t-44.5 5.5v27q131 11 200 28z" />
<glyph unicode="&#x27e;" horiz-adv-x="360" d="M-21 0l76 267q19 66 35.5 102.5t45.5 63.5q56 51 139 51q64 0 103 -28t39 -72q0 -28 -17 -46t-44 -18q-25 0 -42.5 17t-17.5 40q0 20 11 36.5t11 20.5q0 19 -29 19q-48 0 -72 -75l-118 -378h-120z" />
<glyph unicode="&#x27f;" horiz-adv-x="338" d="M63 0l110 380q5 16 5 33q0 40 -40 40q-29 0 -29 -19q0 -4 11 -20.5t11 -36.5q0 -23 -17.5 -40t-42.5 -17q-27 0 -44 18t-17 46q0 44 39 72t103 28q102 0 130 -51q10 -19 10 -44q0 -46 -26 -127l-82 -262h-121z" />
<glyph unicode="&#x280;" horiz-adv-x="498" d="M123 464h215q91 0 134 -21.5t43 -73.5q0 -56 -41 -92.5t-103 -50.5l85 -194q7 -15 26 -15v-17h-146l-84 215h-19l-36 -134q-7 -24 -7 -36q0 -14 10.5 -19t39.5 -9v-17h-232v17q41 5 53.5 15t23.5 51l79 295q7 24 7 38q0 16 -11 22.5t-37 8.5v17zM239 238h21 q66 0 101.5 39.5t35.5 108.5q0 29 -16 42t-52 13q-20 0 -29.5 -7t-14.5 -24z" />
<glyph unicode="&#x281;" horiz-adv-x="498" d="M597 464v-17q-21 0 -34 -15l-189 -194q84 -23 84 -88q0 -75 -66 -112.5t-178 -37.5h-206v17q38 2 53 15.5t25 53.5l79 295q7 24 7 38t-10.5 19.5t-38.5 8.5v17h232v-17q-42 -5 -54 -15.5t-23 -48.5l-36 -134h19l199 215h137zM236 226l-47 -172q-2 -10 -2 -13 q0 -18 30 -18q55 0 89 40.5t34 105.5q0 32 -24 44t-80 13z" />
<glyph unicode="&#x282;" horiz-adv-x="389" d="M333 461l-23 -154l-27 2q-12 63 -33 91.5t-55 28.5q-24 0 -38.5 -14.5t-14.5 -38.5q0 -33 57 -99q80 -93 80 -162q0 -56 -43 -92t-105 -36q-35 0 -64 12q-21 8 -31 8q-12 0 -20 -8t-9 -17l-9 -84q-1 -6 -1 -16q0 -69 73 -69q39 0 39 17q0 7 -11.5 25.5t-11.5 33.5 q0 23 17 38.5t42 15.5q28 0 45 -17t17 -44q0 -44 -39.5 -72t-101.5 -28q-98 0 -98 91q0 18 2 30l33 250l27 -3q17 -133 93 -133q29 0 44.5 14.5t15.5 39.5q0 41 -56 104q-50 56 -65 87.5t-15 73.5q0 59 36.5 92.5t97.5 33.5q33 0 58 -12q21 -10 37 -10q11 0 16 4t12 17h29z " />
<glyph unicode="&#x283;" horiz-adv-x="424" d="M106 -53l116 466q14 56 32 99t47 84.5t73 64t100 22.5q52 0 81 -21t29 -57q0 -26 -15 -43.5t-39 -17.5q-23 0 -38 14t-15 33q0 14 9 29.5t9 18.5q0 5 -6.5 9.5t-16.5 4.5q-19 0 -34.5 -13.5t-27 -42.5t-16.5 -45t-14 -50l-114 -454q-15 -60 -33 -104.5t-47.5 -87.5 t-75 -66t-104.5 -23q-50 0 -80 21t-30 57q0 26 15 43.5t39 17.5q23 0 38 -14t15 -33q0 -14 -9 -29.5t-9 -18.5q0 -14 26 -14q21 0 36.5 12t27 39.5t17 44.5t14.5 54z" />
<glyph unicode="&#x284;" horiz-adv-x="394" d="M113 46l110 437q26 103 76 149q56 51 135 51q64 0 103 -28t39 -72q0 -28 -17 -46t-44 -18q-25 0 -42.5 17t-17.5 40q0 20 11 36.5t11 20.5q0 19 -29 19q-60 0 -76 -60l-143 -546h68l-12 -46h-68q-31 -109 -80 -158t-122 -49q-47 0 -76 22t-29 55q0 22 14.5 37.5 t34.5 15.5q22 0 35.5 -13.5t13.5 -35.5q0 -11 -7.5 -20t-7.5 -15q0 -15 24 -15q21 0 38 31t36 105l10 40h-62l12 46h62z" />
<glyph unicode="&#x285;" horiz-adv-x="415" d="M324 280l-103 -386q-11 -44 -11 -59q0 -14 1 -20t6 -12t16 -6q9 0 15.5 4.5t6.5 9.5q0 3 -9 18.5t-9 29.5q0 19 15 33t38 14q24 0 39 -17.5t15 -43.5q0 -36 -29.5 -57t-81.5 -21q-67 0 -101.5 34t-34.5 92q0 29 9 64l107 397q8 30 8 50q0 36 -29 36q-10 0 -17 -4.5 t-7 -9.5q0 -3 9 -18.5t9 -29.5q0 -19 -15 -33t-38 -14q-24 0 -39 17.5t-15 43.5q0 36 29.5 57t81.5 21q67 0 105 -34t38 -91q0 -31 -9 -65z" />
<glyph unicode="&#x286;" horiz-adv-x="521" d="M181 21l97 388q14 56 32 100t47 86t73 65t101 23q51 0 80.5 -21t29.5 -57q0 -26 -15.5 -43.5t-38.5 -17.5t-38 13.5t-15 33.5q0 14 9 29.5t9 18.5q0 5 -6.5 9.5t-15.5 4.5q-20 0 -35.5 -13.5t-27 -40.5t-16.5 -44.5t-13 -48.5l-108 -430q-21 -84 -34 -115q18 -36 18 -105 q0 -50 -17 -99h-42q19 51 19 82q0 12 -7 54q-71 -126 -211 -126q-48 0 -72 26.5t-24 64.5q0 76 53 121.5t136 45.5q8 0 32 -4zM171 -19q-15 4 -39 4q-56 0 -94 -35.5t-38 -83.5q0 -24 15 -41.5t50 -17.5q30 0 51 24.5t31 56.5q6 19 24 93z" />
<glyph unicode="&#x287;" horiz-adv-x="310" d="M85 363l-23 15q49 76 86.5 105.5t83.5 29.5q67 0 67 -65q0 -28 -25 -115l-67 -236h52v-35q-62 -21 -103 -55t-81 -97h-35l39 145h-72v42h83l34 119q53 185 53 209q0 18 -16 18q-25 0 -76 -80z" />
<glyph unicode="&#x288;" horiz-adv-x="311" d="M281 407h-83l-146 -512q-3 -11 -3 -28q0 -29 11 -49t29 -20q33 0 33 17q0 6 -11.5 25.5t-11.5 33.5q0 23 17 38.5t42 15.5q28 0 45 -17t17 -44q0 -44 -39 -72t-101 -28q-68 0 -104 32.5t-36 91.5q0 20 4 35l137 481h-52v35q62 21 103 55t81 97h35l-39 -145h72v-42z" />
<glyph unicode="&#x289;" horiz-adv-x="556" d="M514 269l-13 -46h-80l-11 -40q-25 -88 -25 -103q0 -21 14 -21q24 0 72 74l22 -13q-39 -67 -76.5 -98t-82.5 -31q-68 0 -68 60q0 31 26 110h-1q-70 -103 -109.5 -136.5t-88.5 -33.5q-78 0 -78 79q0 27 22 106l13 47h-66l15 46h65l10 35q17 62 17 75q0 24 -58 28v27 q87 2 210 28l-60 -193h131q23 58 56 180h118l-53 -180h79zM294 223h-125l-19 -63q-16 -51 -16 -72q0 -25 24 -25q28 0 70 55q41 53 66 105z" />
<glyph unicode="&#x28a;" d="M552 428h-75q-15 0 -23.5 -13.5t-8.5 -31.5q0 -10 26 -54.5t26 -85.5q0 -69 -46 -128t-114.5 -91t-138.5 -32q-85 0 -134 46t-49 120q0 107 128 207q25 20 25 38q0 25 -17 25h-73v24h192l-47 -93q-31 -60 -42.5 -86.5t-23 -73t-11.5 -95.5q0 -88 58 -88q93 0 145 191 q24 86 24 192q0 34 -1 53h180v-24z" />
<glyph unicode="&#x28b;" horiz-adv-x="534" d="M243 462l-101 -328q-4 -13 -4 -32q0 -27 23.5 -44.5t53.5 -17.5q81 0 147 83.5t66 166.5q0 20 -5.5 31t-18.5 22t-18 17q-19 23 -19 48q0 20 16.5 37t40.5 17q68 0 68 -112q0 -85 -38.5 -166.5t-112.5 -137.5t-163 -56q-160 0 -160 104q0 12 10 50l57 199q6 30 6 33 q0 20 -20 25q-18 5 -38 6v27q73 0 210 28z" />
<glyph unicode="&#x28c;" horiz-adv-x="444" d="M401 41v-27q-101 -14 -156 -27q-31 99 -31 334q-74 -84 -100 -123.5t-26 -65.5q0 -13 20 -36q25 -28 25 -53q0 -23 -17 -39.5t-40 -16.5q-27 0 -44 20t-17 47q0 67 60 154q41 60 88 111.5t142 142.5h26q-5 -91 -5 -177q0 -175 25 -225q10 -19 50 -19z" />
<glyph unicode="&#x28d;" horiz-adv-x="667" d="M614 42v-27q-110 -18 -156 -28q-33 123 -33 274l-156 -274h-27l-31 333q-120 -140 -120 -187q0 -15 20 -38q22 -25 22 -48q0 -29 -16.5 -44.5t-40.5 -15.5q-25 0 -43 18.5t-18 43.5q0 131 272 413h27l23 -285q85 157 114 201l56 84h27v-46q0 -4 -0.5 -24.5t-0.5 -37.5 q0 -94 11.5 -191.5t26.5 -110.5q11 -10 43 -10z" />
<glyph unicode="&#x28e;" horiz-adv-x="444" d="M169 352h-2q-52 -99 -69.5 -141t-17.5 -66q0 -13 25 -34q31 -25 31 -54q0 -21 -16 -39t-42 -18q-25 0 -43.5 19t-18.5 45q0 76 75.5 227t173.5 270q41 50 87.5 78t87.5 28q26 0 44 -17.5t18 -42.5q0 -22 -15.5 -39t-34.5 -17q-25 0 -51 18t-43 18q-13 0 -32 -15t-35 -37 q-25 -35 -25 -71q0 -50 50 -288q21 -94 40 -113q8 -8 14.5 -10t25.5 -2v-27q-86 -8 -150 -24q-43 111 -66 274z" />
<glyph unicode="&#x28f;" horiz-adv-x="633" d="M606 464v-17q-38 -5 -60 -27l-209 -214l-32 -122q-7 -26 -7 -35q0 -17 13 -23t48 -9v-17h-274v17q49 4 65.5 17.5t26.5 53.5l24 93l-81 225q-13 38 -55 41v17h265v-17l-23 -2q-20 -2 -27.5 -3t-14 -6t-6.5 -15q0 -7 9 -36l53 -159l118 122q53 57 53 78q0 10 -12.5 14.5 t-47.5 6.5v17h174z" />
<glyph unicode="&#x290;" horiz-adv-x="440" d="M343 156l-97 -275q-7 -21 -7 -34q0 -34 31 -34q37 0 37 17q0 6 -11.5 25.5t-11.5 33.5q0 23 17 38.5t42 15.5q28 0 45 -17t17 -44q0 -44 -37.5 -72t-98.5 -28q-28 0 -48 16t-20 43q0 22 10 50l40 109h-275v22l273 331h-136q-29 0 -45.5 -13.5t-27.5 -47.5l-27 3l44 154 h311v-10l-287 -343h174q29 0 60 60h28z" />
<glyph unicode="&#x291;" horiz-adv-x="411" d="M80 96h95q54 84 114 84q87 0 87 -75q0 -46 -37 -75.5t-106 -29.5h-71l-55 -97h-42l55 97h-144v22l273 331h-136q-29 0 -45.5 -13.5t-27.5 -47.5l-27 3l44 154h311v-10zM219 96h57q57 0 57 25q0 12 -12.5 19t-26.5 7q-37 0 -75 -51z" />
<glyph unicode="&#x292;" horiz-adv-x="499" d="M558 423l-246 -197q22 6 54 6q46 0 79 -37t33 -100q0 -140 -97 -235.5t-204 -95.5q-41 0 -82 10.5t-61 24.5q-44 31 -44 69q0 20 14.5 35t44.5 15q57 0 67 -67q4 -22 24.5 -36t44.5 -14q43 0 83 54.5t61.5 121.5t21.5 116q0 75 -56 75q-62 0 -122 -47l-20 24l290 232 h-204q-20 0 -50.5 -23.5t-44.5 -59.5h-26l76 156h364v-27z" />
<glyph unicode="&#x293;" horiz-adv-x="499" d="M528 423l-246 -197q24 6 52 6q45 0 79.5 -35t34.5 -107q0 -93 -56.5 -181t-162.5 -130l22 -86h-48l-18 75q-20 -4 -53 -4q-142 0 -142 94q0 43 34 68.5t88 25.5q38 0 62.5 -25t40.5 -97q40 32 73 118t33 137q0 83 -56 83q-61 0 -122 -47l-20 24l290 232h-204 q-20 0 -50.5 -23.5t-44.5 -59.5h-26l76 156h364v-27zM177 -195q-27 110 -59 110q-19 0 -30 -14t-11 -36q0 -28 23 -46t56 -18q13 0 21 4z" />
<glyph unicode="&#x294;" horiz-adv-x="530" d="M193 380h31q72 0 119.5 65t47.5 149q0 62 -35 62q-25 0 -45 -19t-26 -43q-16 -63 -72 -63q-25 0 -39 15.5t-14 32.5q0 47 55 79q47 27 123 27q79 0 130.5 -40.5t51.5 -105.5q0 -104 -70 -180.5t-178 -76.5l-44 -161q-12 -42 -12 -55q0 -41 49 -42v-24h-240v24q38 3 61 22 q13 10 18.5 19.5t12.5 36.5z" />
<glyph unicode="&#x295;" horiz-adv-x="530" d="M152 84l54 198q-61 6 -94 49t-33 102q0 106 82 179t192 73q60 0 106 -30q50 -31 50 -76q0 -17 -14 -32.5t-39 -15.5q-55 0 -71 60l-7 25q-3 8 -9 19.5t-15.5 16t-22.5 4.5q-41 0 -82 -70t-41 -116q0 -41 30 -65.5t70 -24.5h32l-81 -293q-3 -12 -3 -21q0 -40 49 -42v-24 h-240v24q72 6 87 60z" />
<glyph unicode="&#x296;" horiz-adv-x="487" d="M453 669v-24q-72 -6 -86 -60l-52 -196q63 -7 100 -50.5t37 -101.5q0 -108 -80 -179.5t-189 -71.5q-62 0 -110 23.5t-48 63.5q0 29 15 48t47 19q31 0 43 -17t18 -48q5 -25 21 -42.5t41 -17.5q44 0 78.5 60.5t34.5 126.5q0 40 -35 64.5t-75 24.5h-32l78 291q3 12 3 21 q0 40 -49 42v24h240z" />
<glyph unicode="&#x297;" horiz-adv-x="479" d="M24 -82l104 385q13 49 57.5 86.5t95.5 55t98 17.5q60 0 112.5 -34.5t52.5 -84.5q0 -21 -16 -41.5t-47 -20.5q-23 0 -40 11.5t-17 29.5q0 16 6 30t6 26q0 25 -12.5 35.5t-38.5 10.5q-39 0 -73 -27t-45 -66l-109 -405q-6 -20 -6 -38q0 -33 17 -54t47 -21q46 0 88.5 35 t55.5 83l7 26h43l-11 -40q-18 -64 -80.5 -109t-143.5 -45q-64 0 -109.5 34.5t-45.5 88.5q0 17 4 32z" />
<glyph unicode="&#x298;" horiz-adv-x="723" d="M438 328q0 -33 -22 -55.5t-55 -22.5q-34 0 -57.5 22.5t-23.5 55.5q0 34 23 57t57 23q32 0 55 -23t23 -57zM734 429q0 -115 -64 -218.5t-169 -165.5t-219 -62q-117 0 -193 68.5t-76 183.5q0 89 40.5 172.5t105 142.5t147.5 94.5t165 35.5q121 0 192 -69.5t71 -181.5z M606 464q0 177 -151 177q-81 0 -154 -63.5t-116.5 -166t-43.5 -213.5q0 -172 152 -172q81 0 154.5 67t116 168.5t42.5 202.5z" />
<glyph unicode="&#x299;" horiz-adv-x="493" d="M105 464h229q152 0 152 -83q0 -52 -36 -83.5t-109 -47.5q50 -7 80.5 -32t30.5 -62q0 -69 -63.5 -112.5t-170.5 -43.5h-228v17q40 5 54.5 15t21.5 39l86 320q4 13 4 25q0 15 -11.5 22t-39.5 9v17zM229 257h14q65 0 96 36t31 98q0 50 -52 50q-40 0 -49 -35zM223 234 l-45 -167q-3 -13 -3 -19q0 -25 36 -25q48 0 83.5 43t35.5 102q0 66 -88 66h-19z" />
<glyph unicode="&#x29a;" horiz-adv-x="465" d="M504 307q0 -61 -20.5 -114.5t-53 -90t-73 -63.5t-81 -40t-76.5 -13q-82 0 -133 25.5t-51 80.5t45.5 98t110.5 60q-66 34 -66 80q0 75 64.5 110t157.5 35q76 0 126 -45t50 -123zM317 227h-53q-42 0 -75 -39t-33 -90q0 -29 19 -46t51 -17q69 0 138.5 84t69.5 184 q0 60 -32 97.5t-83 37.5q-39 0 -66 -28.5t-27 -76.5q0 -29 24.5 -49t48.5 -20h18v-37z" />
<glyph unicode="&#x29b;" horiz-adv-x="580" d="M467 109l-21 -79q-84 -41 -211 -41q-95 0 -150.5 45.5t-55.5 125.5q0 119 100.5 210.5t225.5 91.5q56 0 118 -28q14 41 44 73q40 31 81 31t66.5 -17.5t25.5 -47.5q0 -18 -11.5 -29.5t-29.5 -11.5q-16 0 -27.5 10.5t-11.5 25.5q0 13 7.5 25t7.5 14q0 11 -19 11 q-36 0 -48 -41l-48 -172h-18q-9 40 -17 59t-25 39q-32 37 -91 37q-79 0 -141 -99.5t-62 -214.5q0 -56 23 -86t81 -30q67 0 83 57l12 43q6 24 6 35q0 17 -13 23.5t-50 8.5v16h251v-16q-41 -4 -57 -19t-25 -49z" />
<glyph unicode="&#x29c;" horiz-adv-x="582" d="M676 464v-17q-39 -3 -55.5 -13.5t-23.5 -37.5l-88 -329q-3 -12 -3 -20q0 -14 12 -20t43 -10v-17h-248v17q41 5 56 14.5t22 35.5l42 157h-177l-42 -157q-3 -12 -3 -20q0 -14 12 -20t44 -10v-17h-246v17q39 5 53.5 14t21.5 36l88 329q4 18 4 22q0 15 -11.5 21t-40.5 8v17 h246v-17q-40 -3 -56.5 -13t-23.5 -38l-37 -140h177l37 140q3 12 3 21q0 15 -12 21.5t-42 8.5v17h248z" />
<glyph unicode="&#x29d;" horiz-adv-x="475" d="M463 617q0 -28 -20 -47.5t-49 -19.5q-28 0 -47 20t-19 49q0 26 20 46t46 20q28 0 48.5 -20t20.5 -48zM423 462l-116 -444q-13 -51 -29 -87q17 -15 32 -38t22.5 -36.5t23.5 -48.5l18 -41h-48q-34 87 -70 120q-41 -65 -85.5 -92.5t-106.5 -27.5q-51 0 -82.5 28t-31.5 70 q0 63 52.5 101t112.5 38q44 0 69 -13l81 319q12 45 12 67q0 30 -41 30h-22v27q136 12 209 28zM163 -87l10 35q-27 16 -75 16q-38 0 -73 -28t-35 -70q0 -29 23 -44t53 -15q39 0 61 28t36 78z" />
<glyph unicode="&#x29e;" d="M528 449l-157 -566q-7 -24 -7 -42q0 -20 7 -27t23 -7h34v-27q-96 -5 -209 -30l124 461q-95 -75 -130 -109.5t-35 -53.5q0 -12 10.5 -16.5t39.5 -6.5v-25h-206v25q37 5 61.5 18.5t73.5 57.5l64 58q-19 95 -33 145.5t-24 66t-22 15.5q-28 0 -64 -64l-22 11q32 68 65 96 t73 28q47 0 72.5 -46.5t50.5 -176.5l39 27l50 188h122z" />
<glyph unicode="&#x29f;" horiz-adv-x="485" d="M468 156l-66 -156h-392v17q34 4 48.5 16t19.5 34l81 328q4 20 4 24q0 15 -10.5 20.5t-35.5 7.5v17h238v-17q-43 -1 -56.5 -13t-24.5 -54l-76 -303q-4 -14 -4 -23q0 -31 60 -31q67 0 112 36q36 29 80 97h22z" />
<glyph unicode="&#x2a0;" horiz-adv-x="488" d="M347 390l24 93q26 99 161 99q64 0 103 -28t39 -72q0 -28 -17 -46t-44 -18q-25 0 -42.5 17t-17.5 40q0 20 11 36.5t11 20.5q0 19 -29 19q-25 0 -39.5 -14.5t-24.5 -48.5l-140 -500q-36 -131 -36 -138q0 -28 49 -28h17v-27h-268v27q45 0 62 13t30 56l61 207 q-60 -111 -154 -111q-49 0 -75.5 34t-26.5 96q0 84 54 178q44 77 102.5 122t115.5 45q40 0 57 -22q10 -13 17 -50zM325 371q0 48 -35 48q-27 0 -58 -35.5t-53 -79.5q-53 -109 -53 -188q0 -57 39 -57q45 0 88 74q27 47 49.5 121t22.5 117z" />
<glyph unicode="&#x2a1;" horiz-adv-x="530" d="M193 380h31q72 0 119.5 65t47.5 149q0 62 -35 62q-25 0 -45 -19t-26 -43q-16 -63 -72 -63q-25 0 -39 15.5t-14 32.5q0 47 55 79q47 27 123 27q79 0 130.5 -40.5t51.5 -105.5q0 -104 -70 -180.5t-178 -76.5l-21 -74h66l-12 -46h-66l-11 -41q-12 -45 -12 -55q0 -41 49 -42 v-24h-240v24q38 3 61 22q13 10 18.5 19.5t12.5 36.5l16 60h-66l12 46h66z" />
<glyph unicode="&#x2a2;" horiz-adv-x="530" d="M184 208l21 74q-62 6 -95 49t-33 102q0 107 82.5 179.5t191.5 72.5q55 0 101 -27q55 -32 55 -79q0 -17 -14 -32.5t-39 -15.5q-54 0 -71 60q-9 34 -19.5 49.5t-34.5 15.5q-41 0 -82 -70t-41 -116q0 -41 30 -65.5t70 -24.5h32l-47 -172h66l-12 -46h-66l-21 -75 q-3 -12 -3 -21q0 -40 50 -42v-24h-240v24q71 6 86 60l21 78h-65l12 46h65z" />
<glyph unicode="&#x2a3;" horiz-adv-x="750" d="M735 439l-288 -343h175q29 0 60 60h28l-55 -156h-297q-51 -11 -58 -11q-28 0 -44 16t-16 45q0 20 11 68q-72 -131 -166 -131q-48 0 -77 32.5t-29 92.5q0 72 37 150t94 132q70 68 138 68q46 0 75 -33l18 64q29 102 29 122q0 28 -41 28h-21v27q129 10 209 29l-69 -250h287 v-10zM616 353h-136q-29 0 -45.5 -13.5t-27.5 -47.5h-2l-42 -154q-14 -53 -14 -63q0 -5 3.5 -10t7.5 -5q14 0 35 25zM308 371q0 21 -10.5 35t-26.5 14q-57 1 -114 -112q-24 -48 -39 -100.5t-15 -85.5q0 -28 11.5 -46t29.5 -18q45 0 86 75q27 48 52.5 126.5t25.5 111.5z" />
<glyph unicode="&#x2a4;" horiz-adv-x="820" d="M813 423l-209 -191h17q46 0 79 -37t33 -100q0 -140 -97 -235.5t-204 -95.5q-41 0 -82 10.5t-61 24.5q-44 31 -44 69q0 20 14.5 35t44.5 15q57 0 67 -67q4 -22 24.5 -36t44.5 -14q43 0 83 54.5t61.5 121.5t21.5 116q0 75 -56 75q-19 0 -43 -23l-102 -98q-61 -58 -105 -58 q-28 0 -44 16t-16 45q0 20 11 68q-72 -131 -166 -131q-48 0 -77 32.5t-29 92.5q0 72 37 150t94 132q70 68 138 68q46 0 75 -33l18 64q29 102 29 122q0 28 -41 28h-21v27q129 10 209 29l-68 -249h364v-27zM704 377h-211q-17 0 -46.5 -21t-37.5 -50l-50 -183q-8 -29 -8 -38 q0 -19 11 -19q4 0 14.5 8.5t27.5 25.5l17 16zM308 371q0 21 -10.5 35t-26.5 14q-57 1 -114 -112q-24 -48 -39 -100.5t-15 -85.5q0 -28 11.5 -46t29.5 -18q45 0 86 75q27 48 52.5 126.5t25.5 111.5z" />
<glyph unicode="&#x2a5;" horiz-adv-x="817" d="M448 96h94q54 84 114 84q87 0 87 -75q0 -46 -37 -75.5t-106 -29.5h-71l-55 -97h-42l55 97h-124q-44 -11 -63 -11q-28 0 -44 16t-16 45q0 20 11 68q-72 -131 -166 -131q-48 0 -77 32.5t-29 92.5q0 72 37 150t94 132q70 68 138 68q46 0 75 -33l18 64q29 102 29 122 q0 28 -41 28h-21v27q129 10 209 29l-69 -250h287v-10zM586 96h57q57 0 57 25q0 12 -12.5 19t-26.5 7q-37 0 -75 -51zM616 353h-136q-29 0 -45.5 -13.5t-27.5 -47.5h-2l-42 -154q-14 -53 -14 -63q0 -5 3.5 -10t7.5 -5q14 0 39 30zM308 371q0 21 -10.5 35t-26.5 14 q-57 1 -114 -112q-24 -48 -39 -100.5t-15 -85.5q0 -28 11.5 -46t29.5 -18q45 0 86 75q27 48 52.5 126.5t25.5 111.5z" />
<glyph unicode="&#x2a6;" horiz-adv-x="560" d="M524 461l-23 -154l-27 2q-12 63 -33 91.5t-55 28.5q-24 0 -38.5 -14.5t-14.5 -38.5q0 -33 57 -99q80 -93 80 -162q0 -56 -43 -92t-105 -36q-35 0 -64 12q-16 6 -37.5 23.5t-35.5 35.5q-56 -67 -121 -67q-67 0 -67 65q0 28 25 115l67 236h-52v35q62 21 103 55t81 97h35 l-39 -145h88q31 13 67 13q32 0 58 -12q21 -10 37 -10q11 0 16 4t12 17h29zM211 141l23 -15q-3 -5 -7 -11q22 -98 87 -98q29 0 44.5 14.5t15.5 39.5q0 41 -56 104q-50 56 -65 87.5t-15 73.5t18 71h-50l-34 -119q-53 -185 -53 -209q0 -18 16 -18q25 0 76 80z" />
<glyph unicode="&#x2a7;" horiz-adv-x="453" d="M190 449h128q68 234 242 234q52 0 81 -21t29 -57q0 -26 -15 -43.5t-39 -17.5q-23 0 -38 14t-15 33q0 14 9 29.5t9 18.5q0 5 -6.5 9.5t-16.5 4.5q-19 0 -34.5 -13.5t-27 -42.5t-16.5 -45t-14 -50l-114 -454q-15 -60 -33 -104.5t-47.5 -87.5t-75 -66t-104.5 -23 q-50 0 -80 21t-30 57q0 26 15 43.5t39 17.5q23 0 38 -14t15 -33q0 -14 -9 -29.5t-9 -18.5q0 -14 26 -14q21 0 36.5 12t27 39.5t17 44.5t14.5 54l41 166q-43 -42 -64.5 -61t-60 -40t-71.5 -21q-67 0 -67 65q0 28 25 115l67 236h-52v35q62 21 103 55t81 97h35zM306 407h-127 l-34 -119q-53 -185 -53 -209q0 -18 16 -18t57 34.5t86 93.5z" />
<glyph unicode="&#x2a8;" horiz-adv-x="600" d="M335 144v-19q128 49 205 49q36 0 57 -21t21 -50q0 -67 -70 -100q-44 -21 -115 -21q-42 0 -70 2.5t-67 17.5t-64 43q-36 -18 -88 -36t-80 -18q-67 0 -67 65q0 28 25 115l67 236h-52v35q62 21 103 55t81 97h35l-39 -145h72v-42h-83l-34 -119q-53 -185 -53 -209 q0 -18 16 -18q21 0 81 18q-9 25 -9 59q0 134 105 239q83 85 180 85q46 0 79 -25.5t33 -64.5q0 -32 -17 -51.5t-45 -19.5q-25 0 -41.5 15t-16.5 38q0 16 10.5 32t10.5 26q0 7 -7.5 12t-16.5 5q-26 0 -47.5 -22.5t-45.5 -65.5q-53 -99 -53 -197zM573 99q0 30 -47 30 q-69 0 -179 -43q14 -29 54 -44t85 -15q41 0 64 22t23 50z" />
<glyph unicode="&#x2b0;" horiz-adv-x="380" d="M349 440l16 -11q-35 -57 -60 -79t-57 -22q-21 0 -34 13t-13 35q0 19 4 31l56 179q4 15 4 22q0 16 -14 16q-31 0 -76 -70q-26 -40 -41.5 -81t-41.5 -138h-85l106 414q7 26 7 37q0 24 -29 24h-15v20q68 6 146 22l-76 -308q52 79 83 106t67 27q25 0 39 -15t14 -41 q0 -16 -6 -36l-56 -185q-2 -6 -2 -9q0 -12 12 -12t52 61z" />
<glyph unicode="&#x2b1;" horiz-adv-x="380" d="M349 441l16 -11q-35 -57 -60 -79t-57 -22q-21 0 -34 13t-13 35q0 16 5 34l55 176q4 15 4 22q0 16 -14 16q-31 0 -76 -70q-25 -40 -41 -81t-42 -138h-85l105 411q24 94 127 94q45 0 72.5 -20.5t27.5 -53.5q0 -21 -12 -34t-31 -13q-18 0 -30 12.5t-12 29.5q0 15 8 27t8 15 q0 14 -21 14q-36 0 -48 -51l-55 -222q52 79 83 106t67 27q25 0 39 -15t14 -41q0 -16 -5 -34l-57 -187q-2 -6 -2 -10q0 -11 12 -11t52 61z" />
<glyph unicode="&#x2b2;" horiz-adv-x="350" d="M384 965q0 -22 -15.5 -37t-37.5 -15q-21 0 -36 15.5t-15 37.5q0 20 15.5 35.5t35.5 15.5q22 0 37.5 -15.5t15.5 -36.5zM353 845l-89 -341q-24 -91 -62 -132t-97 -41q-36 0 -58.5 16.5t-22.5 42.5q0 17 11 29t27 12q17 0 27 -10.5t10 -27.5q0 -9 -5.5 -15.5t-5.5 -11.5 q0 -11 18 -11q17 0 29.5 23t27.5 81l69 269q9 34 9 52q0 23 -32 23h-16v21q101 8 160 21z" />
<glyph unicode="&#x2b3;" horiz-adv-x="389" d="M181 533h1q53 91 84.5 124t66.5 33q23 0 37 -13.5t14 -35.5q0 -24 -14.5 -39.5t-37.5 -15.5q-19 0 -33 14t-21 14q-20 0 -57 -57q-34 -52 -66 -139l-27 -74h-107q90 257 90 286q0 11 -10.5 15t-39.5 4v20q118 9 178 21z" />
<glyph unicode="&#x2b4;" horiz-adv-x="389" d="M258 690h107q-90 -257 -90 -286q0 -11 10.5 -15t39.5 -4v-20q-118 -9 -178 -21l58 157h-1q-53 -91 -84.5 -124t-66.5 -33q-23 0 -37 13.5t-14 35.5q0 24 14.5 39.5t37.5 15.5q19 0 33 -14t21 -14q20 0 57 57q34 52 66 139z" />
<glyph unicode="&#x2b5;" horiz-adv-x="389" d="M364 690l-143 -425q-4 -8 -4 -21q0 -21 11 -35.5t27 -14.5q30 0 30 9q0 6 -10.5 17t-10.5 27q0 20 15 32t37 12q24 0 39.5 -15t15.5 -36q0 -32 -34 -50.5t-90 -18.5q-60 0 -91.5 26t-31.5 70q0 14 4 25l77 209h-1q-53 -90 -84.5 -123t-66.5 -33q-23 0 -37 13.5t-14 35.5 q0 24 14.5 39.5t37.5 15.5q19 0 33 -14.5t21 -14.5q19 0 57 57q34 52 66 139l27 74h106z" />
<glyph unicode="&#x2b6;" horiz-adv-x="390" d="M466 684v-12q-14 0 -27 -11l-147 -142q69 -16 69 -65q0 -55 -51.5 -82t-140.5 -27h-164v12q46 0 60 51l58 215q5 20 5 28q0 11 -8 15t-31 6v12h184v-12q-34 -4 -43 -11.5t-17 -35.5l-26 -98h15l155 157h109zM183 510l-34 -126q-1 -3 -1 -9q0 -13 23 -13q44 0 70 28t26 76 q0 42 -84 44z" />
<glyph unicode="&#x2b7;" horiz-adv-x="450" d="M296 690l23 -252q91 106 91 142q0 10 -15 29q-17 18 -17 36q0 21 12.5 33t30.5 12q19 0 32.5 -14t13.5 -33q0 -98 -205 -312h-20l-18 216q-54 -103 -86 -152l-42 -64h-20v82q0 71 -8.5 144.5t-19.5 83.5q-10 8 -33 8v20q91 15 118 21q25 -96 25 -207q40 74 118 207h20z " />
<glyph unicode="&#x2b8;" horiz-adv-x="350" d="M268 419h2q67 128 67 159q0 10 -19 26q-24 20 -24 42q0 16 12 30t32 14q19 0 33.5 -14.5t14.5 -34.5q0 -58 -58.5 -174.5t-133.5 -208.5q-66 -82 -135 -82q-20 0 -34 13.5t-14 32.5q0 17 12 30t27 13q19 0 39.5 -13.5t32.5 -13.5q24 0 52 40q19 26 19 54q0 41 -38 222 q-16 72 -31 87q-10 10 -31 10v21q63 5 116 18q34 -88 51 -211z" />
<glyph unicode="&#x2bb;" horiz-adv-x="333" d="M319 685l13 -25q-118 -63 -118 -116q0 -21 30 -37q40 -23 40 -65q0 -35 -20.5 -54t-52.5 -19q-39 0 -61 26t-22 68q0 67 51 125.5t140 96.5z" />
<glyph unicode="&#x2c0;" horiz-adv-x="343" d="M52 441h26q60 0 99.5 53t39.5 121q0 51 -28 51q-13 0 -22.5 -8.5t-13 -18t-7.5 -24.5q-13 -51 -60 -51q-21 0 -32.5 12.5t-11.5 26.5q0 39 46 65q40 22 86 22q65 0 107 -33.5t42 -86.5q0 -77 -67 -143t-152 -66q-14 0 -25 1l-39 -122h-43z" />
<glyph unicode="&#x2c1;" horiz-adv-x="326" d="M135 240l27 122q-11 -1 -25 -1q-57 0 -87 35t-30 87q0 89 63 148t152 59q49 0 87 -24q42 -26 42 -63q0 -14 -11.5 -26.5t-31.5 -12.5q-44 0 -57 46q-5 19 -8 28t-12.5 18.5t-23.5 9.5q-33 0 -63.5 -57t-30.5 -95q0 -34 23.5 -53.5t55.5 -19.5h27l-54 -201h-43z" />
<glyph unicode="&#x2c6;" horiz-adv-x="333" d="M367 516h-51l-88 95l-131 -95h-57l160 174h81z" />
<glyph unicode="&#x2c7;" horiz-adv-x="333" d="M411 690l-162 -174h-82l-88 174h51l90 -97l134 97h57z" />
<glyph unicode="&#x2d8;" horiz-adv-x="333" d="M348 678h39q-33 -162 -178 -162q-138 0 -138 149v13h43q8 -90 99 -90q50 0 81 20.5t54 69.5z" />
<glyph unicode="&#x2d9;" horiz-adv-x="333" d="M293 589q0 -26 -19.5 -45t-46.5 -19q-25 0 -44.5 19.5t-19.5 44.5q0 27 19 46.5t45 19.5q27 0 46.5 -19.5t19.5 -46.5z" />
<glyph unicode="&#x2da;" horiz-adv-x="333" d="M340 648q0 -44 -31.5 -75.5t-75.5 -31.5q-48 0 -77 30t-29 78q0 44 31.5 74.5t75.5 30.5q47 0 76.5 -30.5t29.5 -75.5zM292 646q0 25 -17.5 42.5t-42.5 17.5q-23 0 -40 -17.5t-17 -41.5t17 -41t40 -17q25 0 42.5 17t17.5 40z" />
<glyph unicode="&#x2db;" horiz-adv-x="333" d="M167 -84l22 -14q-19 -35 -53 -55t-73 -20q-47 0 -75 21t-28 60q0 25 11.5 47t42.5 60l14 17l33 12l-5 -20q-12 -50 -12 -66q0 -62 61 -62q22 0 48 13z" />
<glyph unicode="&#x2dc;" horiz-adv-x="333" d="M366 655h41q-16 -63 -44 -91t-73 -28q-25 0 -57 13l-59 23q-21 8 -38 8q-31 0 -48 -43h-40q10 54 41.5 86t74.5 32q38 0 97 -26q39 -16 54 -16q17 0 28.5 9t22.5 33z" />
<glyph unicode="&#x2dd;" horiz-adv-x="333" d="M258 516l122 133q43 48 70 48q20 0 34 -14t14 -33q0 -27 -39 -49l-151 -85h-50zM69 516l122 133q43 48 70 48q20 0 34 -13t14 -32q0 -29 -39 -51l-149 -85h-52z" />
<glyph unicode="&#x2e0;" horiz-adv-x="379" d="M423 667h-8q-14 0 -50 -42l-161 -189l38 -117q5 -17 5 -34q0 -44 -42.5 -69.5t-92.5 -25.5q-98 0 -98 47q0 33 40 78l73 87l-50 159q-21 69 -24 78q-5 15 -11 21t-19 7v17h152v-17q-35 0 -35 -25q0 -3 7 -26l44 -139l97 113q42 49 42 59q0 18 -26 18v17h119v-17zM140 361 l-37 -44q-43 -52 -43 -71q0 -17 15.5 -24.5t31.5 -7.5q18 0 41 10.5t23 30.5q0 16 -20 72z" />
<glyph unicode="&#x2e1;" horiz-adv-x="222" d="M217 857l-108 -390q-16 -58 -16 -74q0 -12 11 -12q18 0 59 60l16 -10q-39 -60 -64.5 -81t-61.5 -21q-22 0 -36.5 13.5t-14.5 33.5q0 24 26 116l55 193q25 90 25 108q0 23 -31 23q-8 0 -16 -1v20q74 7 156 22z" />
<glyph unicode="&#x2e2;" horiz-adv-x="280" d="M274 689l-18 -116l-20 2q-17 90 -67 90q-18 0 -29 -11t-11 -29q0 -25 43 -75q61 -70 61 -122q0 -42 -32.5 -69.5t-79.5 -27.5q-27 0 -48 9q-15 6 -23 6q-15 0 -22 -15h-20l16 126l21 -3q12 -98 70 -98q45 0 45 39q0 30 -42 78q-37 42 -48.5 66t-11.5 56q0 45 27.5 70 t73.5 25q25 0 44 -9q14 -7 28 -7q12 0 21 15h22z" />
<glyph unicode="&#x2e3;" horiz-adv-x="389" d="M68 672l123 18q22 -33 35 -103q42 62 66.5 82.5t51.5 20.5q17 0 30 -13.5t13 -31.5q0 -16 -12 -28t-29 -12q-9 0 -22 7.5t-21 7.5q-13 0 -32 -19.5t-37 -50.5l24 -118q8 -39 28 -39q10 0 19 8t31 36l16 -11q-35 -49 -60.5 -70t-52.5 -21q-28 0 -44 25.5t-29 90.5l-18 -29 q-33 -54 -51.5 -70.5t-46.5 -16.5q-21 0 -34 12t-13 32q0 18 12 30.5t29 12.5q12 0 25.5 -8t20.5 -8q10 0 16.5 5.5t18.5 23.5l33 53l-22 114q-5 28 -14.5 40t-27.5 12q-12 0 -26 -2v20z" />
<glyph unicode="&#x2e4;" horiz-adv-x="328" d="M102 413l28 107q-54 2 -82 36.5t-28 85.5q0 89 63 148t152 59q49 0 87 -24q42 -26 42 -63q0 -14 -11.5 -26.5t-31.5 -12.5q-44 0 -57 46q-5 19 -8 28t-12.5 18.5t-23.5 9.5q-33 0 -63.5 -57t-30.5 -95q0 -34 23.5 -53.5t55.5 -19.5h27l-53 -198q-4 -18 -4 -24 q0 -16 13 -23t45 -9v-17h-224v17q48 3 64.5 13t28.5 54z" />
<glyph unicode="&#x2ec;" horiz-adv-x="314" d="M309 70l-131 -237h-43l-130 237h78l74 -136l74 136h78z" />
<glyph unicode="&#x2ed;" horiz-adv-x="395" d="M390 648h-385v72h385v-72zM390 528h-385v72h385v-72z" />
<glyph unicode="&#x384;" horiz-adv-x="300" d="M140 516l98 136q20 28 54 28q10 0 18.5 -8.5t8.5 -20.5q0 -19 -10 -31t-40 -37l-81 -67h-48z" />
<glyph unicode="&#x385;" horiz-adv-x="380" d="M140 516l98 136q20 28 54 28q10 0 18.5 -8.5t8.5 -20.5q0 -19 -10 -31t-40 -37l-81 -67h-48zM440 580q0 -26 -19.5 -45t-46.5 -19q-26 0 -45 19t-19 45q0 27 19 46.5t45 19.5q27 0 46.5 -19.5t19.5 -46.5zM157 580q0 -26 -19.5 -45t-46.5 -19q-25 0 -44.5 19t-19.5 45 q0 27 19 46.5t45 19.5q27 0 46.5 -19.5t19.5 -46.5z" />
<glyph unicode="&#x386;" horiz-adv-x="667" d="M123 529l98 136q20 28 54 28q10 0 18.5 -8.5t8.5 -20.5q0 -19 -10 -31t-40 -37l-81 -67h-48zM593 0h-303v25q77 6 77 49q0 3 -2 15l-12 119h-215l-57 -96q-17 -28 -17 -50q0 -37 64 -37v-25h-195l-1 25q26 3 43 19.5t43 56.5l370 582h25l94 -560q11 -62 25 -78.5 t61 -19.5v-25zM346 248l-37 243l-148 -243h185z" />
<glyph unicode="&#x387;" horiz-adv-x="333" d="M264 385q0 -31 -21.5 -52.5t-53.5 -21.5q-31 0 -52 21t-21 53t21.5 53t53.5 21q30 0 51.5 -22t21.5 -52z" />
<glyph unicode="&#x388;" horiz-adv-x="700" d="M10 529l98 136q20 28 54 28q10 0 18.5 -8.5t8.5 -20.5q0 -19 -10 -31t-40 -37l-81 -67h-48zM748 669l-43 -190l-27 5q-3 60 -9.5 82t-35.5 41q-47 30 -137 30q-32 0 -45 -9t-22 -42l-59 -216q99 0 134.5 18.5t70.5 88.5l28 -4l-74 -274l-28 4q4 25 4 44q0 52 -30 71.5 t-114 19.5l-63 -234q-8 -32 -8 -38q0 -34 61 -34q131 0 214 61q28 20 47 42t44 64l25 -5l-60 -194h-553v25q39 6 54 20.5t28 59.5l119 432q12 44 12 70q0 15 -9 22.5t-32 10.5l-33 4v25h541z" />
<glyph unicode="&#x389;" horiz-adv-x="850" d="M9 529l98 136q20 28 54 28q10 0 18.5 -8.5t8.5 -20.5q0 -19 -10 -31t-40 -37l-81 -67h-48zM889 669v-25q-36 0 -53.5 -16.5t-28.5 -57.5l-111 -408q-22 -84 -22 -96q0 -22 16 -30.5t57 -10.5v-25h-316v25q51 3 70 17.5t32 61.5l62 225h-239l-54 -197q-12 -43 -12 -67 q0 -34 71 -40v-25h-295v25q39 5 54 18.5t27 55.5l121 447q11 38 11 58q0 17 -9.5 25t-32.5 11l-31 4v25h316v-25q-49 -2 -69 -17t-33 -63l-52 -191h239l47 173q10 38 10 61q0 15 -9 22.5t-32 10.5l-31 4v25h297z" />
<glyph unicode="&#x38a;" horiz-adv-x="450" d="M9 529l98 136q20 28 54 28q10 0 18.5 -8.5t8.5 -20.5q0 -19 -10 -31t-40 -37l-81 -67h-48zM503 669v-25q-38 -4 -55 -19t-29 -61l-112 -412q-17 -62 -17 -87q0 -21 14.5 -29.5t56.5 -10.5v-25h-296v25q39 5 54 18t29 64l117 429q14 51 14 71q0 28 -42 33l-32 4v25h298z " />
<glyph unicode="&#x38c;" horiz-adv-x="722" d="M11 529l98 136q20 28 54 28q10 0 18.5 -8.5t8.5 -20.5q0 -19 -10 -31t-40 -37l-81 -67h-48zM691 444q0 -95 -49.5 -194.5t-130.5 -171.5q-108 -96 -248 -96q-108 0 -172 62.5t-64 176.5q0 101 51 202.5t135 169.5q114 92 236 92q104 0 173 -66.5t69 -174.5zM547 528 q0 60 -27 91.5t-74 31.5q-91 0 -162 -120q-46 -78 -79.5 -189.5t-33.5 -198.5q0 -57 27.5 -92t74.5 -35q46 0 82 28t75 86q49 72 83 191t34 207z" />
<glyph unicode="&#x38e;" horiz-adv-x="700" d="M855 628l-17 -19q-31 26 -75 26q-62 0 -119 -79q-62 -87 -106 -248l-53 -192q-10 -34 -10 -49q0 -24 16.5 -33t62.5 -9v-25h-323v25q51 5 71.5 19t32.5 59l56 209q0 40 -5 84.5t-17 97.5t-39 87.5t-65 34.5q-30 0 -68 -29l-18 18q52 80 150 80q52 0 89.5 -24t57.5 -65 t29 -86.5t9 -98.5h4q36 109 102 187.5t141 78.5q63 0 94 -49zM8 529l98 136q20 28 54 28q10 0 18.5 -8.5t8.5 -20.5q0 -19 -10 -31t-40 -37l-81 -67h-48z" />
<glyph unicode="&#x38f;" horiz-adv-x="808" d="M279 124v32q-84 34 -117 85t-33 126q0 72 46.5 145t127.5 119q95 54 231 54q118 0 179 -57t61 -159q0 -112 -74.5 -197t-207.5 -118l-9 -30h111q52 0 75.5 13.5t52.5 61.5l25 -6l-64 -193h-295l60 192q80 17 131 103t51 186q0 170 -107 170q-62 0 -120.5 -46.5 t-94 -119.5t-35.5 -147q0 -56 14 -89t53 -57l-29 -192h-286l41 199l25 6q0 -44 22.5 -62.5t66.5 -18.5h99zM26 529l98 136q20 28 54 28q10 0 18.5 -8.5t8.5 -20.5q0 -19 -10 -31t-40 -37l-81 -67h-48z" />
<glyph unicode="&#x390;" horiz-adv-x="278" d="M250 142l22 -14q-48 -79 -85 -108t-83 -29q-68 0 -68 63q0 22 15 76l55 203q8 32 8 45q0 29 -46 29h-14v27q118 9 203 28l-91 -334q-9 -31 -9 -51q0 -16 15 -16q21 0 64 61zM119 516l98 136q20 28 54 28q10 0 18.5 -8.5t8.5 -20.5q0 -19 -10 -31t-40 -37l-81 -67h-48z M419 580q0 -26 -19.5 -45t-46.5 -19q-25 0 -44.5 19t-19.5 45q0 27 19 46.5t45 19.5q27 0 46.5 -19.5t19.5 -46.5zM136 580q0 -26 -19.5 -45t-46.5 -19q-26 0 -45 19t-19 45q0 27 19 46.5t45 19.5q27 0 46.5 -19.5t19.5 -46.5z" />
<glyph unicode="&#x391;" horiz-adv-x="667" d="M593 0h-303v25q77 6 77 49q0 3 -2 15l-12 119h-215l-57 -96q-17 -28 -17 -50q0 -37 64 -37v-25h-195l-1 25q26 3 43 19.5t43 56.5l370 582h25l94 -560q11 -62 25 -78.5t61 -19.5v-25zM346 248l-37 243l-148 -243h185z" />
<glyph unicode="&#x392;" horiz-adv-x="667" d="M118 669h265q241 0 241 -146q0 -39 -13.5 -67t-44 -47t-57 -29.5t-74.5 -24.5v-1q72 -20 104.5 -55.5t32.5 -92.5q0 -99 -78 -152.5t-217 -53.5h-302v25q36 5 54 22t30 61l119 438q11 39 11 57t-10.5 27.5t-23.5 11.5t-37 2v25zM334 577l-57 -209q5 0 21.5 1.5t21.5 1.5 t18.5 1.5t19 2.5t16 3.5t16.5 5.5l13 6q8 3 14.5 7.5t12.5 10.5q47 44 47 128q0 101 -87 101q-25 0 -35 -10t-21 -50zM269 338l-64 -236q-7 -27 -7 -37q0 -33 57 -33q73 0 121 59q43 52 43 138q0 58 -35 85q-28 21 -115 24z" />
<glyph unicode="&#x393;" horiz-adv-x="585" d="M670 669l-43 -190l-27 5q0 75 -20 100q-42 53 -167 53q-31 0 -43 -9.5t-20 -38.5l-125 -457q-15 -56 -15 -63q0 -23 14.5 -32t56.5 -12v-25h-294v25q41 4 55.5 19.5t26.5 59.5l121 442q10 38 10 61q0 28 -42 33l-31 4v25h543z" />
<glyph unicode="&#x394;" horiz-adv-x="667" d="M549 0h-614l453 683h25zM384 124l-75 367l-240 -367h315z" />
<glyph unicode="&#x395;" horiz-adv-x="667" d="M653 669l-43 -190l-27 5q-3 60 -9.5 82t-35.5 41q-47 30 -137 30q-32 0 -45 -9t-22 -42l-59 -216q99 0 134.5 18.5t70.5 88.5l28 -4l-74 -274l-28 4q4 25 4 44q0 52 -30 71.5t-114 19.5l-63 -234q-8 -32 -8 -38q0 -34 61 -34q131 0 214 61q28 20 47 42t44 64l25 -5 l-60 -194h-553v25q39 6 54 20.5t28 59.5l119 432q12 44 12 70q0 15 -9 22.5t-32 10.5l-33 4v25h541z" />
<glyph unicode="&#x396;" horiz-adv-x="611" d="M589 640l-434 -605h75q70 0 115.5 11t83.5 39q49 37 97 114l27 -5l-60 -194h-505v29l434 605h-83q-79 0 -133.5 -32t-113.5 -115l-28 4l58 178h467v-29z" />
<glyph unicode="&#x397;" horiz-adv-x="778" d="M799 669v-25q-36 0 -53.5 -16.5t-28.5 -57.5l-111 -408q-22 -84 -22 -96q0 -22 16 -30.5t57 -10.5v-25h-316v25q51 3 70 17.5t32 61.5l62 225h-239l-54 -197q-12 -43 -12 -67q0 -34 71 -40v-25h-295v25q39 5 54 18.5t27 55.5l121 447q11 38 11 58q0 17 -9.5 25t-32.5 11 l-31 4v25h316v-25q-49 -2 -69 -17t-33 -63l-52 -191h239l47 173q10 38 10 61q0 15 -9 22.5t-32 10.5l-31 4v25h297z" />
<glyph unicode="&#x398;" horiz-adv-x="718" d="M466 457l28 -4q-41 -88 -59 -254l-27 3q0 39 -7 52t-35 13h-41q-34 0 -49 -12.5t-37 -52.5l-26 10q47 96 56 241l29 4q1 -43 10.5 -56.5t46.5 -13.5h34q30 0 43.5 13t33.5 57zM691 444q0 -95 -49.5 -194.5t-130.5 -171.5q-108 -96 -248 -96q-108 0 -172 62.5t-64 176.5 q0 101 51 202.5t135 169.5q114 92 236 92q104 0 173 -66.5t69 -174.5zM547 528q0 60 -27 91.5t-74 31.5q-52 0 -89.5 -20.5t-72.5 -79.5q-45 -76 -79 -197.5t-34 -210.5q0 -57 27.5 -92t74.5 -35q46 0 82 28t75 86q49 72 83 191t34 207z" />
<glyph unicode="&#x399;" horiz-adv-x="389" d="M406 669v-25q-38 -4 -55 -19t-29 -61l-112 -412q-17 -62 -17 -87q0 -21 14.5 -29.5t56.5 -10.5v-25h-296v25q39 5 54 18t29 64l117 429q14 51 14 71q0 28 -42 33l-32 4v25h298z" />
<glyph unicode="&#x39a;" horiz-adv-x="667" d="M702 669v-25q-33 -5 -47.5 -12t-46.5 -36l-216 -199l157 -333q9 -19 22 -27.5t41 -11.5v-25h-280l1 25l26 4q21 3 29.5 8t8.5 15q0 16 -15 49l-111 236l-67 -249q-2 -10 -2 -17q0 -25 13 -34t52 -12v-25h-288v25q36 4 52.5 17t26.5 51l123 453q11 38 11 58q0 17 -9 25 t-32 11l-33 4v25h311v-25q-45 -4 -64.5 -18.5t-29.5 -53.5l-62 -227l197 175q77 68 77 97q0 22 -35 25l-21 2v25h211z" />
<glyph unicode="&#x39b;" horiz-adv-x="655" d="M581 0h-303v25q77 6 77 49q0 3 -2 15l-50 399h-2l-220 -376q-17 -28 -17 -50q0 -37 64 -37v-25h-195l-1 25q26 3 43 19.5t43 56.5l364 582h25l88 -560q10 -62 24.5 -78.5t61.5 -19.5v-25z" />
<glyph unicode="&#x39c;" horiz-adv-x="889" d="M917 669v-25q-39 -5 -55 -20t-29 -61l-119 -438q-10 -34 -10 -57q0 -25 14 -34t57 -9v-25h-311v25q50 3 69.5 18.5t31.5 60.5l123 457l-375 -573h-28l-67 559l-101 -369q-20 -71 -20 -92q0 -33 15.5 -44.5t64.5 -16.5v-25h-206v25q40 9 58 36.5t45 120.5l107 369 q11 41 11 58q0 22 -12 28.5t-59 6.5v25h219l54 -480l311 480h212z" />
<glyph unicode="&#x39d;" horiz-adv-x="722" d="M748 669v-25q-42 -8 -58.5 -32.5t-43.5 -120.5l-143 -506h-28l-257 547l-99 -354q-19 -66 -19 -94q0 -29 17.5 -42t61.5 -17v-25h-206v25q42 8 56 30t45 125l120 407q-15 34 -28.5 43.5t-53.5 13.5v25h193l216 -467l81 289q19 71 19 94q0 59 -81 59v25h208z" />
<glyph unicode="&#x39e;" horiz-adv-x="746" d="M740 669l-28 -183l-25 5q0 38 -18 48t-74 10h-301q-33 0 -50.5 -11t-45.5 -52l-26 7l58 176h510zM618 462l-64 -231l-25 3q0 33 -12 46t-45 13h-161q-41 0 -56.5 -12t-31.5 -50l-25 3l64 236l25 -2q0 -34 10 -47.5t46 -13.5h159q35 0 56 11t35 50zM653 199l-64 -199h-564 l41 205l25 6q0 -44 22.5 -62.5t66.5 -18.5h320q52 0 75.5 13.5t52.5 61.5z" />
<glyph unicode="&#x39f;" horiz-adv-x="722" d="M691 444q0 -95 -49.5 -194.5t-130.5 -171.5q-108 -96 -248 -96q-108 0 -172 62.5t-64 176.5q0 101 51 202.5t135 169.5q114 92 236 92q104 0 173 -66.5t69 -174.5zM547 528q0 60 -27 91.5t-74 31.5q-91 0 -162 -120q-46 -78 -79.5 -189.5t-33.5 -198.5q0 -57 27.5 -92 t74.5 -35q46 0 82 28t75 86q49 72 83 191t34 207z" />
<glyph unicode="&#x3a0;" horiz-adv-x="778" d="M799 669v-25q-36 0 -53.5 -16.5t-28.5 -57.5l-111 -408q-22 -84 -22 -96q0 -22 16 -30.5t57 -10.5v-25h-316v25q51 3 70 17.5t32 61.5l144 525h-239l-136 -497q-12 -43 -12 -67q0 -34 71 -40v-25h-295v25q39 5 54 18.5t27 55.5l121 447q11 38 11 58q0 17 -9.5 25 t-32.5 11l-31 4v25h683z" />
<glyph unicode="&#x3a1;" horiz-adv-x="611" d="M112 669h282q219 0 219 -155q0 -80 -59 -131q-75 -66 -214 -66q-37 0 -81 5l-54 -199q-11 -37 -11 -58q0 -20 15 -29t57 -11v-25h-294v25q40 6 55.5 20.5t28.5 61.5l117 426q13 46 13 74q0 15 -9 22.5t-32 10.5l-33 4v25zM330 584l-61 -229q17 -3 42 -3q46 0 74.5 14.5 t48.5 47.5q33 52 33 136q0 40 -22.5 63.5t-61.5 23.5q-26 0 -35 -9.5t-18 -43.5z" />
<glyph unicode="&#x3a3;" horiz-adv-x="633" d="M619 669l-37 -181l-25 4q0 71 -30.5 106.5t-96.5 35.5h-152l146 -262l-260 -238h225q62 0 88.5 15t55.5 64l26 -5l-61 -208h-509v28l313 287l-186 325v29h503z" />
<glyph unicode="&#x3a4;" horiz-adv-x="611" d="M650 669l-36 -192l-27 2q0 85 -31.5 120t-106.5 35l-135 -489q-17 -58 -17 -74q0 -46 83 -46v-25h-331v25h15q72 0 91 72l148 537q-79 -2 -130 -34t-88 -109l-25 7l39 171h551z" />
<glyph unicode="&#x3a5;" horiz-adv-x="611" d="M697 628l-17 -19q-31 26 -75 26q-62 0 -119 -79q-62 -87 -106 -248l-53 -192q-10 -34 -10 -49q0 -24 16.5 -33t62.5 -9v-25h-323v25q51 5 71.5 19t32.5 59l56 209q0 40 -5 84.5t-17 97.5t-39 87.5t-65 34.5q-30 0 -68 -29l-18 18q52 80 150 80q52 0 89.5 -24t57.5 -65 t29 -86.5t9 -98.5h4q36 109 102 187.5t141 78.5q63 0 94 -49z" />
<glyph unicode="&#x3a6;" horiz-adv-x="771" d="M538 581l-4 -18q101 -1 165 -44t64 -132q0 -72 -38 -131t-95 -92.5t-115 -51t-107 -17.5q-4 -16 -4 -29q0 -22 17 -31.5t62 -9.5v-25h-311v25q48 4 61.5 15t25.5 55h-8q-103 0 -164 51t-61 143q0 85 56 149.5t133.5 94.5t157.5 30h15q7 33 7 44q0 28 -45 33l-35 4v25h311 v-25q-74 0 -88 -63zM521 529l-108 -400q83 0 144.5 80.5t61.5 178.5q0 52 -24.5 90t-73.5 51zM272 129l109 400q-86 0 -148.5 -85.5t-62.5 -188.5q0 -126 102 -126z" />
<glyph unicode="&#x3a7;" horiz-adv-x="667" d="M694 669v-25q-28 -4 -47.5 -16t-51.5 -45l-199 -205l75 -237q21 -66 41.5 -88t73.5 -28v-25h-307v25q42 4 54.5 11t12.5 27q0 30 -37 141l-20 60l-130 -144q-32 -35 -32 -55q0 -34 63 -40v-25h-214v25q10 2 17.5 4t16.5 8l17 11q7 4 19 16l22 20l26 27l30 33l38 42l45 49 l68 74l-83 269q-12 40 -29 50.5t-64 15.5v25h305v-25l-29 -3q-25 -2 -35 -9t-10 -24q0 -21 35 -132l17 -55l94 99q70 74 70 98q0 21 -33 24l-21 2v25h202z" />
<glyph unicode="&#x3a8;" horiz-adv-x="661" d="M780 685v-25q-20 0 -35 -9t-23.5 -20t-15 -31t-8.5 -32t-5 -33q-9 -63 -43 -109.5t-82 -70.5t-95 -35t-93 -11l-52 -192q-10 -40 -10 -51q0 -22 17 -31.5t62 -9.5v-25h-323v25q49 5 70.5 19t33.5 59l56 206q-212 0 -212 157q0 31 14.5 78.5t14.5 77.5q0 37 -34 38v25h36 q59 0 93 -34.5t34 -93.5q0 -17 -7 -55.5t-7 -54.5q0 -46 19.5 -75t57.5 -29l53 193q14 51 14 71q0 28 -42 33l-34 4v25h305v-25q-67 0 -81 -54l-68 -247q48 0 87.5 42t54.5 104q25 109 80 152.5t135 43.5h33z" />
<glyph unicode="&#x3a9;" horiz-adv-x="808" d="M279 124v32q-84 34 -117 85t-33 126q0 72 46.5 145t127.5 119q95 54 231 54q118 0 179 -57t61 -159q0 -112 -74.5 -197t-207.5 -118l-9 -30h111q52 0 75.5 13.5t52.5 61.5l25 -6l-64 -193h-295l60 192q80 17 131 103t51 186q0 170 -107 170q-62 0 -120.5 -46.5 t-94 -119.5t-35.5 -147q0 -56 14 -89t53 -57l-29 -192h-286l41 199l25 6q0 -44 22.5 -62.5t66.5 -18.5h99z" />
<glyph unicode="&#x3aa;" horiz-adv-x="389" d="M406 669v-25q-38 -4 -55 -19t-29 -61l-112 -412q-17 -62 -17 -87q0 -21 14.5 -29.5t56.5 -10.5v-25h-296v25q39 5 54 18t29 64l117 429q14 51 14 71q0 28 -42 33l-32 4v25h298zM486 839q0 -26 -19.5 -45t-46.5 -19q-26 0 -45 19.5t-19 44.5q0 27 19 46.5t45 19.5 q27 0 46.5 -19.5t19.5 -46.5zM274 839q0 -26 -19.5 -45t-46.5 -19q-26 0 -45 19.5t-19 44.5q0 27 19 46.5t45 19.5q27 0 46.5 -19.5t19.5 -46.5z" />
<glyph unicode="&#x3ab;" horiz-adv-x="611" d="M697 628l-17 -19q-31 26 -75 26q-62 0 -119 -79q-62 -87 -106 -248l-53 -192q-10 -34 -10 -49q0 -24 16.5 -33t62.5 -9v-25h-323v25q51 5 71.5 19t32.5 59l56 209q0 40 -5 84.5t-17 97.5t-39 87.5t-65 34.5q-30 0 -68 -29l-18 18q52 80 150 80q52 0 89.5 -24t57.5 -65 t29 -86.5t9 -98.5h4q36 109 102 187.5t141 78.5q63 0 94 -49zM592 839q0 -26 -19.5 -45t-46.5 -19q-26 0 -45 19.5t-19 44.5q0 27 19 46.5t45 19.5q27 0 46.5 -19.5t19.5 -46.5zM380 839q0 -26 -19.5 -45t-46.5 -19q-26 0 -45 19.5t-19 44.5q0 27 19 46.5t45 19.5 q27 0 46.5 -19.5t19.5 -46.5z" />
<glyph unicode="&#x3ac;" horiz-adv-x="576" d="M574 449l-158 -255q0 -56 10.5 -95.5t27.5 -39.5q35 0 58 77l24 -7q-10 -56 -42.5 -98t-78.5 -42q-39 0 -62.5 23.5t-29.5 55.5q-41 -45 -78.5 -63t-89.5 -18q-60 0 -100 25q-58 37 -58 133q0 79 34 151.5t98 119t142 46.5q54 0 88 -26t47 -68l44 81h124zM312 285 q0 67 -10 107.5t-41 40.5q-20 0 -45 -29.5t-47 -75.5t-37.5 -111t-15.5 -129q0 -36 13 -53.5t32 -17.5q41 0 91.5 68t51.5 124q8 44 8 76zM251 516l98 136q20 28 54 28q10 0 18.5 -8.5t8.5 -20.5q0 -19 -10 -31t-40 -37l-81 -67h-48z" />
<glyph unicode="&#x3ad;" horiz-adv-x="454" d="M83 234v1q-44 25 -44 71q0 63 76 109.5t175 46.5q47 0 82.5 -25t35.5 -65q0 -30 -17.5 -50.5t-44.5 -20.5q-25 0 -41.5 15t-16.5 38q0 15 10.5 31.5t10.5 26.5q0 7 -10 12t-20 5q-35 0 -69.5 -36.5t-34.5 -83.5q0 -52 43 -52q4 0 18.5 4.5t29.5 4.5q35 0 35 -23 q0 -34 -53 -34q-4 0 -14.5 3t-18.5 3q-40 0 -66 -29.5t-26 -65.5q0 -29 19 -49t54 -20q84 0 143 83l28 -18q-88 -129 -207 -129q-86 0 -125.5 34.5t-39.5 85.5q0 88 88 127zM201 516l98 136q20 28 54 28q10 0 18.5 -8.5t8.5 -20.5q0 -19 -10 -31t-40 -37l-81 -67h-48z" />
<glyph unicode="&#x3ae;" horiz-adv-x="488" d="M178 263h1q51 75 73 103.5t49 54.5q43 41 100 41q73 0 73 -77q0 -24 -26 -121l-68 -258q-30 -115 -30 -173q0 -26 5 -38h-112q-13 21 -13 50q0 57 108 448q11 42 11 76q0 21 -20 21q-13 0 -33 -16.5t-36 -37.5q-47 -62 -79 -135t-66 -201h-121l87 309q12 46 12 55 q0 21 -17 21q-20 0 -63 -49l-20 18q68 101 167 101q58 0 58 -47q0 -26 -18 -78zM216 516l98 136q20 28 54 28q10 0 18.5 -8.5t8.5 -20.5q0 -19 -10 -31t-40 -37l-81 -67h-48z" />
<glyph unicode="&#x3af;" horiz-adv-x="278" d="M107 516l98 136q20 28 54 28q10 0 18.5 -8.5t8.5 -20.5q0 -19 -10 -31t-40 -37l-81 -67h-48zM216 142l22 -14q-48 -79 -85 -108t-83 -29q-68 0 -68 63q0 22 15 76l55 203q8 32 8 45q0 29 -46 29h-14v27q118 9 203 28l-91 -334q-9 -31 -9 -51q0 -16 15 -16q21 0 64 61z " />
<glyph unicode="&#x3b0;" horiz-adv-x="536" d="M300 435v27q53 0 88 -13q89 -33 89 -138q0 -128 -83 -226t-192 -98q-160 0 -160 128q0 34 13 86l24 91q14 52 15 66q0 27 -17 27q-24 0 -64 -49l-20 18q28 42 73 71.5t95 29.5q57 0 57 -48q0 -23 -12 -67l-38 -144q-16 -62 -16 -111q0 -35 14.5 -52t37.5 -17 q34 0 64.5 43t49 102.5t29.5 117t11 93.5q0 39 -14 51t-44 12zM200 516l98 136q20 28 54 28q10 0 18.5 -8.5t8.5 -20.5q0 -19 -10 -31t-40 -37l-81 -67h-48zM500 580q0 -26 -19.5 -45t-46.5 -19q-26 0 -45 19t-19 45q0 27 19 46.5t45 19.5q27 0 46.5 -19.5t19.5 -46.5z M217 580q0 -26 -19.5 -45t-46.5 -19q-25 0 -44.5 19t-19.5 45q0 27 19 46.5t45 19.5q27 0 46.5 -19.5t19.5 -46.5z" />
<glyph unicode="&#x3b1;" horiz-adv-x="576" d="M574 449l-158 -255q0 -56 10.5 -95.5t27.5 -39.5q35 0 58 77l24 -7q-10 -56 -42.5 -98t-78.5 -42q-39 0 -62.5 23.5t-29.5 55.5q-41 -45 -78.5 -63t-89.5 -18q-60 0 -100 25q-58 37 -58 133q0 79 34 151.5t98 119t142 46.5q54 0 88 -26t47 -68l44 81h124zM312 285 q0 67 -10 107.5t-41 40.5q-20 0 -45 -29.5t-47 -75.5t-37.5 -111t-15.5 -129q0 -36 13 -53.5t32 -17.5q41 0 91.5 68t51.5 124q8 44 8 76z" />
<glyph unicode="&#x3b2;" d="M-50 -122l135 505q13 47 37.5 99t60 102t84 82t98.5 32q49 0 82 -24.5t33 -79.5q0 -56 -34 -110t-81 -74v-2q29 -6 56.5 -38t27.5 -84q0 -67 -31.5 -134.5t-96 -116t-146.5 -48.5q-42 0 -75 22l-36 -138q-14 -55 -25 -76h-118q16 29 29 83zM216 454l-101 -388 q0 -44 40 -44q47 0 87.5 52.5t61 120t20.5 123.5q0 69 -32 69q-9 0 -16 -3t-12 -3q-27 0 -27 21q0 13 11 22t27 9q6 0 19 -2t20 -2q29 0 45.5 62t16.5 113q0 65 -31 65q-34 0 -71 -66t-58 -149z" />
<glyph unicode="&#x3b3;" horiz-adv-x="438" d="M461 449l-263 -411q0 -35 -4.5 -71.5t-15.5 -77.5t-35 -67t-57 -26q-29 0 -40.5 20t-11.5 43q0 17 6.5 37t20 45t25.5 45l34 52l32 50q12 88 12 141q0 58 -16 97t-50 39q-51 0 -68 -68h-27q13 69 47 117t78 48q25 0 41.5 -10.5t24 -31.5t10 -41.5t2.5 -51.5 q0 -80 -5 -135l136 257h124z" />
</font>
</defs>
</svg>
