<?xml version="1.0" standalone="no"?>
<!DOCTYPE svg PUBLIC "-//W3C//DTD SVG 1.1//EN" "http://www.w3.org/Graphics/SVG/1.1/DTD/svg11.dtd" >
<svg xmlns="http://www.w3.org/2000/svg">
<defs>
  <font id="InstructureIcons-Line" horiz-adv-x="1920">
    <font-face font-family="InstructureIcons-Line"
      units-per-em="1920" ascent="1920"
      descent="0" />
    <missing-glyph horiz-adv-x="0" />
    <glyph glyph-name="Arc"
      unicode="&#xEA01;"
      horiz-adv-x="1920" d="M1142.27704 676.8615500000001L777.213784 676.8615500000001L777.213784 329.6835000000001C843.331544 306.5408299999999 890.752197 243.5989300000001 890.752197 169.5813499999999C890.752197 75.92416 814.828042 0 721.17085 0C627.513658 0 551.589502 75.92416 551.589502 169.5813499999999C551.589502 243.5989300000001 599.010155 306.5408299999999 665.127916 329.6835000000001L665.127916 676.8615500000001L541.655579 676.8615500000001L541.689247 478.7545299999999C541.689247 401.6600900000001 479.191853 339.1627000000001 402.09741 339.1627000000001L342.960786 339.21138C320.046924 272.6771900000001 256.896612 224.8743400000001 182.581348 224.8743400000001C88.9241555 224.8743400000001 13 300.7985000000001 13 394.45569C13 488.1128799999999 88.9241555 564.0370399999999 182.581348 564.0370399999999C256.288255 564.0370399999999 319.012258 517.0136299999999 342.389983 451.3301899999999L403.85272 451.3301899999999C418.054328 451.3301899999999 429.567006 462.8428699999999 429.567006 477.04448L429.567006 676.8615500000001L183.114532 676.8615500000001C150.653714 676.8615500000001 124.339021 703.17624 124.339021 735.63706L124.339021 1861.2244898C124.339021 1893.6853077 150.653714 1920 183.114532 1920L1735.1347 1920C1767.59552 1920 1793.91021 1893.6853077 1793.91021 1861.2244898L1793.91021 735.63706C1793.91021 703.17624 1767.59552 676.8615500000001 1735.1347 676.8615500000001L1489.85675 676.8615500000001L1489.85675 477.04448C1489.85675 462.8428699999999 1501.36943 451.3301899999999 1515.57103 451.3301899999999L1577.03377 451.3301899999999C1600.4115 517.0136299999999 1663.1355 564.0370399999999 1736.84241 564.0370399999999C1830.4996 564.0370399999999 1906.42375 488.1128799999999 1906.42375 394.45569C1906.42375 300.7985000000001 1830.4996 224.8743400000001 1736.84241 224.8743400000001C1662.52714 224.8743400000001 1599.37683 272.6771900000001 1576.46297 339.21138L1517.36272 339.1627000000001C1440.2319 339.1627000000001 1377.73451 401.6600900000001 1377.73451 478.7545299999999L1377.76817 676.8615500000001L1254.36291 676.8615500000001L1254.36291 329.6835000000001C1320.48067 306.5408299999999 1367.90132 243.5989300000001 1367.90132 169.5813499999999C1367.90132 75.92416 1291.97717 0 1198.31997 0C1104.66278 0 1028.73863 75.92416 1028.73863 169.5813499999999C1028.73863 243.5989300000001 1076.15928 306.5408299999999 1142.27704 329.6835000000001L1142.27704 676.8615500000001zM1199.67111 113.95245C1230.3941 113.95245 1255.30001 138.85836 1255.30001 169.5813499999999C1255.30001 200.3043399999999 1230.3941 225.2102400000001 1199.67111 225.2102400000001C1168.94812 225.2102400000001 1144.04222 200.3043399999999 1144.04222 169.5813499999999C1144.04222 138.85836 1168.94812 113.95245 1199.67111 113.95245zM722.52199 113.95245C753.244979 113.95245 778.150884 138.85836 778.150884 169.5813499999999C778.150884 200.3043399999999 753.244979 225.2102400000001 722.52199 225.2102400000001C691.799 225.2102400000001 666.893096 200.3043399999999 666.893096 169.5813499999999C666.893096 138.85836 691.799 113.95245 722.52199 113.95245zM1738.19355 338.8267900000001C1768.91654 338.8267900000001 1793.82244 363.7327 1793.82244 394.45569C1793.82244 425.17868 1768.91654 450.08458 1738.19355 450.08458C1707.47056 450.08458 1682.56465 425.17868 1682.56465 394.45569C1682.56465 363.7327 1707.47056 338.8267900000001 1738.19355 338.8267900000001zM181.230208 338.8267900000001C211.953198 338.8267900000001 236.859102 363.7327 236.859102 394.45569C236.859102 425.17868 211.953198 450.08458 181.230208 450.08458C150.507218 450.08458 125.601314 425.17868 125.601314 394.45569C125.601314 363.7327 150.507218 338.8267900000001 181.230208 338.8267900000001zM901.046855 1571.335104L1121.08185 1439.5388699999999C1133.59009 1430.371548 1141 1415.662382 1141 1400C1141 1384.337618 1133.59009 1369.628452 1121.08185 1360.4611300000001L901.046855 1228.664896C886.19456 1219.958976 867.897012 1219.953577 853.039735 1228.650731C838.182458 1237.3478850000001 829.019897 1253.427886 829 1270.8396910000001L829 1529.1603089999999C829.019897 1546.572114 838.182458 1562.6521149999999 853.039735 1571.349269C867.897012 1580.046423 886.19456 1580.041024 901.046855 1571.335104zM1687.20211 986.666667L1687.20211 1783.945578C1687.20211 1800.175987 1674.04476 1813.333333 1657.81435 1813.333333L260.434877 1813.333333C244.204468 1813.333333 231.047122 1800.175987 231.047122 1783.945578L231.047122 986.666667L1687.20211 986.666667zM1687.20211 880L231.047122 880L231.047122 812.90146C231.047122 796.6710499999999 244.204468 783.51371 260.434877 783.51371L1657.81435 783.51371C1674.04476 783.51371 1687.20211 796.6710499999999 1687.20211 812.90146L1687.20211 880z" />
    <glyph glyph-name="a11y"
      unicode="&#xEA02;"
      horiz-adv-x="1920" d="M960 1918C1489.35529 1918 1920 1487.355294 1920 958C1920 428.6447100000001 1489.35529 -2 960 -2C430.644706 -2 0 428.6447100000001 0 958C0 1487.355294 430.644706 1918 960 1918zM960 1805.058824C492.875294 1805.058824 112.941176 1425.124706 112.941176 958C112.941176 490.8752899999999 492.875294 110.94118 960 110.94118C1427.12471 110.94118 1807.05882 490.8752899999999 1807.05882 958C1807.05882 1425.124706 1427.12471 1805.058824 960 1805.058824zM1396.704 1284.768L1121.504 1284.768L757.450667 1284.768L482.144 1284.768C451.104 1284.768 426.677333 1260.3413329999998 426.677333 1229.3013329999999C426.677333 1198.154667 451.104 1173.728 482.144 1173.728L757.450667 1173.728L757.450667 794.2080000000001L757.450667 660.9813300000001L757.450667 285.9413300000001C757.450667 254.79467 781.770667 230.368 812.917333 230.368C843.957333 230.368 868.384 254.79467 868.384 285.9413300000001L868.384 660.9813300000001L1014.83733 660.9813300000001L1014.83733 285.9413300000001C1014.83733 254.79467 1039.264 230.368 1070.304 230.368C1101.45067 230.368 1125.87733 254.79467 1125.87733 285.9413300000001L1125.87733 660.9813300000001L1125.87733 794.2080000000001L1125.87733 1175.9679999999998L1401.184 1175.9679999999998C1432.224 1175.9679999999998 1456.65067 1200.394667 1456.65067 1231.434667C1449.93067 1260.3413329999998 1425.61067 1284.768 1396.704 1284.768M939.413333 1599.9786669999999C1013.01333 1599.9786669999999 1072.64 1540.3519999999999 1072.64 1466.752C1072.64 1393.258667 1013.01333 1333.632 939.413333 1333.632C865.92 1333.632 806.186667 1393.258667 806.186667 1466.752C806.186667 1540.3519999999999 865.92 1599.9786669999999 939.413333 1599.9786669999999" />
    <glyph glyph-name="add-folder"
      unicode="&#xEA03;"
      horiz-adv-x="1920" d="M764.385882 1807.058824L990.268235 1468.235294L1920 1468.235294L1920 282.35294C1920 194.13961 1852.20148 121.4403500000001 1765.9842 113.63492L1750.58824 112.94118L169.411765 112.94118C81.1984314 112.94118 8.49917211 180.7396900000001 0.693740014 266.95698L0 282.35294L0 1807.058824L764.385882 1807.058824zM703.849412 1694.117647L112.941176 1694.117647L112.941176 282.35294C112.941176 254.6447100000001 133.019608 231.57682 159.295086 226.7927L169.411765 225.8823500000001L1750.58824 225.8823500000001C1778.19608 225.8823500000001 1801.34205 245.8715500000001 1806.14476 272.20652L1807.05882 282.35294L1807.05882 1355.294118L225.882353 1355.294118L225.882353 1468.235294L854.4 1468.235294L703.849412 1694.117647zM1016.47059 1129.4117649999998L1016.47059 847.05882L1298.82353 847.05882L1298.82353 734.1176499999999L1016.47059 734.1176499999999L1016.47059 451.7647099999999L903.529412 451.7647099999999L903.529412 734.1176499999999L621.176471 734.1176499999999L621.176471 847.05882L903.529412 847.05882L903.529412 1129.4117649999998L1016.47059 1129.4117649999998z" />
    <glyph glyph-name="add-media"
      unicode="&#xEA04;"
      horiz-adv-x="1920" d="M853.333333 1498.1915450000001L853.333333 1391.524878L106.666667 1391.5054249999998L106.666667 208.4751200000001L1493.33333 208.4751200000001L1493.33333 751.5248799999999L1600 751.5248799999999L1600 208.4751200000001C1600 149.56475 1552.24371 101.80846 1493.33333 101.80846L106.666667 101.80846C47.7562934 101.80846 0 149.56475 0 208.4751200000001L0 1391.5054249999998C0 1450.415798 47.7562934 1498.172092 106.666667 1498.172092L853.333333 1498.1915450000001zM563.592063 1119.980239L563.592063 480.0003099999999L1096.85829 799.99027L563.592063 1119.980239zM1600 1818.191545L1600 1498.1915450000001L1920 1498.1915450000001L1920 1391.524878L1600 1391.524878L1600 1071.524878L1493.33333 1071.524878L1493.33333 1391.524878L1173.33333 1391.524878L1173.33333 1498.1915450000001L1493.33333 1498.1915450000001L1493.33333 1818.191545L1600 1818.191545z" />
    <glyph glyph-name="add"
      unicode="&#xEA05;"
      horiz-adv-x="1920" d="M915.743529 1707L915.743529 1004.256471L213 1004.256471L213 916.41353L915.743529 916.41353L915.743529 213.6700000000001L1003.58647 213.6700000000001L1003.58647 916.41353L1706.33 916.41353L1706.33 1004.256471L1003.58647 1004.256471L1003.58647 1707z" />
    <glyph glyph-name="address-book"
      unicode="&#xEA06;"
      horiz-adv-x="1920" d="M1688.41176 112.94118L332.058824 112.94118L332.058824 439.21569L388.573529 439.21569C419.769647 439.21569 445.088235 464.51451 445.088235 495.6862699999999C445.088235 526.8580400000001 419.769647 552.15686 388.573529 552.15686L332.058824 552.15686L332.058824 890.9803899999999L388.573529 890.9803899999999C419.769647 890.9803899999999 445.088235 916.27922 445.088235 947.45098C445.088235 978.622745 419.769647 1003.921569 388.573529 1003.921569L332.058824 1003.921569L332.058824 1342.7450979999999L388.573529 1342.7450979999999C419.769647 1342.7450979999999 445.088235 1368.0439219999998 445.088235 1399.215686C445.088235 1430.387451 419.769647 1455.686275 388.573529 1455.686275L332.058824 1455.686275L332.058824 1581.176471L332.058824 1694.117647L332.058824 1807.058824L1688.41176 1807.058824L1688.41176 112.94118zM219.029412 1920L219.029412 1694.117647L219.029412 1581.176471L219.029412 1455.686275L162.514706 1455.686275C131.318588 1455.686275 106 1430.387451 106 1399.215686C106 1368.0439219999998 131.318588 1342.7450979999999 162.514706 1342.7450979999999L219.029412 1342.7450979999999L219.029412 1003.921569L162.514706 1003.921569C131.318588 1003.921569 106 978.622745 106 947.45098C106 916.27922 131.318588 890.9803899999999 162.514706 890.9803899999999L219.029412 890.9803899999999L219.029412 552.15686L162.514706 552.15686C131.318588 552.15686 106 526.8580400000001 106 495.6862699999999C106 464.51451 131.318588 439.21569 162.514706 439.21569L219.029412 439.21569L219.029412 0L1801.44118 0L1801.44118 1920L219.029412 1920zM1029 1421C1141.78175 1421 1255.44392 1329.28175 1255.44392 1216.5L1255.44392 1216.5L1255.44392 1114.25C1255.44392 1069.26 1233.02149 1026.82625 1208.27699 992.9815C1249.07474 983.37 1274.50225 971.81575 1313.56175 954.9445C1389.1245 922.2245 1438 848.29775 1438 766.49775L1438 766.49775L1438 625.6995L1413.97125 610.66875C1344.339 567.2125000000001 1206.19925 498.8072500000001 1027.364 498.8072500000001C1009.87925 498.8072500000001 992.19 499.5229999999999 973.9895 500.8522499999999C857.93575 509.748 743.82475 547.7850000000001 643.82425 610.8732500000001L643.82425 610.8732500000001L620 625.904L620 765.8842500000001C620 847.7864999999999 669.163241 918.59646 742.4955 953.513C783.134393 972.862868 801.744473 983.600173 833.903342 992.9815C808.647592 1027.03075 792.520368 1068.6464999999998 792.520368 1114.25L792.520368 1114.25L792.520368 1216.5C792.520368 1329.28175 916.21825 1421 1029 1421zM1018.41926 910.38906C938.357505 908.95756 859.420505 892.29081 783.142005 859.26406C746.127505 843.31306 722.303255 806.50306 722.303255 765.50081L722.303255 765.50081L722.303255 682.5760600000001C802.262755 636.9725599999999 891.424755 609.3650600000001 981.813755 602.4120600000001C1137.84726 590.6533099999999 1263.71701 642.3918100000001 1335.80326 682.7805599999999L1335.80326 682.7805599999999L1335.80326 766.1143099999999C1335.80326 807.1165599999999 1311.16101 844.2333100000001 1273.12401 860.6955599999999C1210.03576 887.8940600000001 1143.77776 904.35631 1076.29276 909.46881C1063.10251 910.49131 1050.01451 909.98006 1036.82426 910.18456C1034.16576 910.08231 1021.99801 910.28681 1018.41926 910.38906zM1029.15977 1318.696745C972.717766 1318.696745 888.138287 1272.7864949999998 888.138287 1216.446745L888.138287 1216.446745L888.138287 1114.196745C888.138287 1059.083995 970.979516 1014.605245 1025.68327 1012.662495C1027.83052 1012.662495 1029.97777 1012.560245 1032.12502 1012.560245C1087.03327 1014.196245 1160.21148 1058.8794950000001 1160.21148 1114.196745L1160.21148 1114.196745L1160.21148 1216.446745C1160.21148 1272.7864949999998 1085.60177 1318.696745 1029.15977 1318.696745z" />
    <glyph glyph-name="admin-tools"
      unicode="&#xEA07;"
      horiz-adv-x="1920" d="M773.596457 850.3462L1484.68163 139.2610199999999C1524.31409 99.6285600000001 1589.01792 99.6285600000001 1628.75986 139.2610199999999L1767.03555 277.64619C1786.30437 296.91501 1796.92411 322.4242999999999 1796.92411 349.57582C1796.92411 376.83682 1786.30437 402.34612 1767.03555 421.61494L1068.32183 1120.3286520000001L1079.81743 1152.9542689999998C1143.31696 1331.6287889999999 1098.10092 1533.403997 964.532953 1666.97196C840.818366 1790.577065 659.406797 1837.9827438 492.884773 1795.284789L765.166348 1523.003214C797.682483 1490.59656 815.528038 1447.351196 815.528038 1401.259301C815.528038 1355.276887 797.682483 1312.031523 765.166348 1279.515388L654.48011 1168.82915C587.258201 1101.8262049999998 478.104711 1101.8262049999998 410.992284 1168.82915L138.710709 1441.110725C96.122236 1274.5887 143.418432 1093.177132 267.023538 969.462544C390.738126 845.7479599999999 573.244514 797.13798 743.050997 842.2445299999999L773.596457 850.3462zM1556.61126 0C1502.52719 0 1448.44311 20.69209 1407.2779 61.8572899999999L740.094984 729.0402099999999C541.93268 687.3276000000001 333.369592 748.3090299999999 189.619809 892.05882C14.4487116 1067.2299130000001 -35.2560874 1337.212368 65.7957397 1563.730494L98.2023928 1636.426499L488.396013 1246.2328790000001C512.810485 1221.927889 552.66191 1221.927889 577.076381 1246.2328790000001L687.762619 1356.919116C699.586668 1368.8526470000002 706.046102 1384.508564 706.046102 1401.259301C706.046102 1418.010037 699.586668 1433.775436 687.762619 1445.599485L297.568998 1835.7931051L370.265004 1868.1997582C596.892612 1969.2515852 866.875066 1919.546786239 1041.93668 1744.48517C1196.9631 1589.349267 1254.76957 1359.327719 1193.78813 1149.669811L1844.43927 499.01866C1884.40018 459.16724 1906.40605 406.0685000000001 1906.40605 349.57582C1906.40605 293.1926200000001 1884.40018 240.0938900000001 1844.43927 200.2424599999999L1706.16359 61.8572899999999C1664.8889 20.69209 1610.80482 0 1556.61126 0L1556.61126 0z" />
    <glyph glyph-name="admin"
      unicode="&#xEA08;"
      horiz-adv-x="1920" d="M276.941176 1479.416471L276.941176 913.69412C276.941176 491.29412 651.115294 288.22588 951.651765 125.0258799999999L959.670588 120.7341200000001L967.802353 125.0258799999999C1268.33882 288.22588 1642.51294 491.29412 1642.51294 913.69412L1642.51294 1479.416471L959.670588 1801.072941L276.941176 1479.416471zM959.670588 -0.11294C950.409412 -0.11294 941.148235 2.25882 932.677647 6.77647L897.778824 25.7505900000001C588.094118 193.9200000000001 164 424.09412 164 913.69412L164 1515.218824C164 1537.129412 176.649412 1557.007059 196.414118 1566.3811759999999L935.727059 1914.57882353C950.861176 1921.80705882 968.592941 1921.80705882 983.727059 1914.57882353L1723.04 1566.3811759999999C1742.80471 1557.007059 1755.45412 1537.129412 1755.45412 1515.218824L1755.45412 913.69412C1755.45412 424.09412 1331.24706 193.9200000000001 1021.67529 25.7505900000001L986.776471 6.77647C978.305882 2.25882 969.044706 -0.11294 959.670588 -0.11294L959.670588 -0.11294zM1426.82918 547.53882L1113.41741 547.53882L1021.82212 639.02118L1021.82212 722.8235299999999L905.040941 722.8235299999999L905.040941 839.6047100000001L821.351529 839.6047100000001L762.848 898.10824C760.928 897.99529 759.008 897.99529 757.088 897.99529C581.012706 897.99529 437.803294 1041.204706 437.803294 1217.28C437.803294 1393.355294 581.012706 1536.677647 757.088 1536.677647C933.163294 1536.677647 1076.37271 1393.355294 1076.37271 1217.28C1076.37271 1215.3600000000001 1076.37271 1213.44 1076.25976 1211.6329409999998L1426.82918 860.9505899999999L1426.82918 547.53882zM1160.17506 660.48L1313.888 660.48L1313.888 814.1929399999999L958.462118 1169.8447059999999L962.415059 1207.115294C963.431529 1331.011765 870.819765 1423.736471 757.088 1423.736471C643.356235 1423.736471 550.744471 1331.011765 550.744471 1217.28C550.744471 1103.4352939999999 643.356235 1010.936471 757.088 1010.936471L804.297412 1016.244706L868.109176 952.545882L1017.98212 952.545882L1017.98212 835.7647099999999L1134.76329 835.7647099999999L1134.76329 685.77882L1160.17506 660.48zM846.774588 1214.049882C846.774588 1167.292235 808.826353 1129.344 762.068706 1129.344C715.311059 1129.344 677.362824 1167.292235 677.362824 1214.049882C677.362824 1260.8075290000002 715.311059 1298.7557649999999 762.068706 1298.7557649999999C808.826353 1298.7557649999999 846.774588 1260.8075290000002 846.774588 1214.049882" />
    <glyph glyph-name="alerts"
      unicode="&#xEA09;"
      horiz-adv-x="1920" d="M1185.92753 338.8235299999999C1185.92753 214.2494099999999 1084.61929 112.94118 960.045176 112.94118C835.471059 112.94118 734.162824 214.2494099999999 734.162824 338.8235299999999L1185.92753 338.8235299999999zM960.045176 1694.117647C1302.48282 1694.117647 1581.22165 1415.491765 1581.22165 1072.941176L1581.22165 677.64706C1581.22165 590.90824 1613.97459 511.7364700000001 1667.62165 451.7647099999999L252.355765 451.7647099999999C306.115765 511.7364700000001 338.868706 590.90824 338.868706 677.64706L338.868706 1072.941176C338.868706 1415.491765 617.494588 1694.117647 960.045176 1694.117647zM1694.16282 677.64706L1694.16282 1072.941176C1694.16282 1458.635294 1394.86871 1775.209412 1016.51576 1804.235294L1016.51576 1920L903.574588 1920L903.574588 1804.235294C525.108706 1775.209412 225.927529 1458.635294 225.927529 1072.941176L225.927529 677.64706C225.927529 553.07294 124.619294 451.7647099999999 0.0451764706 451.7647099999999L0.0451764706 338.8235299999999L621.221647 338.8235299999999C621.221647 152.01882 773.127529 0 960.045176 0C1146.84988 0 1298.86871 152.01882 1298.86871 338.8235299999999L1920.04518 338.8235299999999L1920.04518 451.7647099999999C1795.47106 451.7647099999999 1694.16282 553.07294 1694.16282 677.64706L1694.16282 677.64706z" />
    <glyph glyph-name="analytics"
      unicode="&#xEA0A;"
      horiz-adv-x="1920" d="M112.941176 1766.427765L112.941176 185.2512899999999L338.823529 185.2512899999999L338.823529 975.839529L790.588235 975.839529L790.588235 185.2512899999999L903.529412 185.2512899999999L903.529412 749.9571800000001L1355.29412 749.9571800000001L1355.29412 185.2512899999999L1468.23529 185.2512899999999L1468.23529 1201.721882L1920 1201.721882L1920 72.3101200000001L0 72.3101200000001L0 1766.427765L112.941176 1766.427765zM1807.05882 1088.780706L1581.17647 1088.780706L1581.17647 185.2512899999999L1807.05882 185.2512899999999L1807.05882 1088.780706zM1242.35294 637.0160000000001L1016.47059 637.0160000000001L1016.47059 185.2512899999999L1242.35294 185.2512899999999L1242.35294 637.0160000000001zM677.647059 862.8983499999999L451.764706 862.8983499999999L451.764706 185.2512899999999L677.647059 185.2512899999999L677.647059 862.8983499999999zM1586.60894 1847L1688.70776 1798.887059C1681.70541 1783.752941 1511.95482 1428.2141179999999 1248.35012 1362.595294C1138.68424 1335.2635289999998 1030.03482 1360.9011759999999 926.128941 1438.9435290000001C805.733647 1529.296471 706.006588 1555.498824 629.997176 1517.550588C496.274824 1450.802353 451.776 1205.1552940000001 451.776 1145.296471L451.776 1145.296471L338.8348240000001 1145.296471C338.8348240000001 1239.489412 395.870118 1526.811765 579.512471 1618.632941C697.197176 1677.2494120000001 836.566588 1647.207059 993.893647 1529.296471C1070.24188 1471.922353 1144.44424 1453.174118 1220.67953 1472.148235C1432.33129 1524.665882 1585.02776 1843.7247059 1586.60894 1847L1586.60894 1847z" />
    <glyph glyph-name="android"
      unicode="&#xEA0B;"
      horiz-adv-x="1920" d="M535.055664 1910.48799013C560.805916 1927.76776446 596.043103 1920.878442667 613.435817 1894.9023113L613.435817 1894.9023113L707.740468 1753.840624C767.59851 1779.816756 831.522381 1798.451806 899.625021 1804.43761C1008.95065 1813.924545 1116.58219 1796.305952 1213.71033 1756.212358L1213.71033 1756.212358L1306.09501 1894.7893716C1323.26184 1920.878442667 1358.27315 1927.76776446 1384.36222 1910.48799013C1410.33835 1893.2082158 1417.34061 1858.0839686 1400.06084 1832.220777L1400.06084 1832.220777L1314.3396 1703.582457C1343.59099 1684.721527 1371.71297 1664.166501 1397.46322 1640.562104C1515.93697 1532.02705 1581.21612 1387.238353 1581.21612 1232.9627209999999L1581.21612 1232.9627209999999L1581.21612 498.85466C1581.21612 410.6487500000001 1505.2077 338.8191 1411.80657 338.8191L1411.80657 338.8191L1242.39701 338.8191L1242.39701 0L1129.45731 0L1129.45731 338.8191L790.638209 338.8191L790.638209 0L677.698507 0L677.698507 338.8191L508.288955 338.8191C414.8878220000001 338.8191 338.879403 410.6487500000001 338.879403 498.85466L338.879403 498.85466L338.879403 1210.7136C338.879403 1411.18157 446.172119 1590.981575 608.127651 1699.629567L608.127651 1699.629567L519.582925 1832.1078373C502.190211 1857.9710289 509.192473 1893.0952761 535.055664 1910.48799013zM959.483063 1694.095522C942.880926 1694.095522 926.165851 1693.304944 909.450775 1691.836728C652.851773 1669.361727 451.819104 1458.051546 451.819104 1210.7136L451.819104 1210.7136L451.819104 498.85466C451.819104 472.9914699999999 477.117598 451.75881 508.288955 451.75881L508.288955 451.75881L1411.80657 451.75881C1442.97792 451.75881 1468.27642 472.9914699999999 1468.27642 498.85466L1468.27642 498.85466L1468.27642 1232.9627209999999C1468.27642 1355.276418 1416.09828 1470.474913 1321.11599 1557.325544C1225.0043 1645.53145 1095.34952 1694.095522 959.483063 1694.095522zM113 621.1683599999999L225.939701 621.1683599999999L225.939701 1185.866865L113 1185.866865L113 621.1683599999999zM1694.15582 621.1683599999999L1807.09552 621.1683599999999L1807.09552 1185.866865L1694.15582 1185.866865L1694.15582 621.1683599999999zM734.168358 1445.605591C684.24901 1445.605591 643.816597 1405.173178 643.816597 1355.25383C643.816597 1305.4474209999998 684.24901 1264.902069 734.168358 1264.902069C784.087706 1264.902069 824.520119 1305.4474209999998 824.520119 1355.25383C824.520119 1405.173178 784.087706 1445.605591 734.168358 1445.605591M1185.92716 1445.605591C1136.00782 1445.605591 1095.5754 1405.173178 1095.5754 1355.25383C1095.5754 1305.4474209999998 1136.00782 1264.902069 1185.92716 1264.902069C1235.84651 1264.902069 1276.27893 1305.4474209999998 1276.27893 1355.25383C1276.27893 1405.173178 1235.84651 1445.605591 1185.92716 1445.605591" />
    <glyph glyph-name="annotate"
      unicode="&#xEA0C;"
      horiz-adv-x="1920" d="M1468.23529 1807L1468.23529 1707.611765L1355.29412 1594.670588L1355.29412 1694.058824L112.941176 1694.058824L112.941176 225.8235299999999L1355.29412 225.8235299999999L1355.29412 664.03529L1468.23529 776.9764700000001L1468.23529 112.8823500000001L0 112.8823500000001L0 1807L1468.23529 1807zM421.270588 756.64706C517.270588 765.68235 576 648.22353 612.141176 559C640.376471 490.1058800000001 650.541176 466.38824 684.423529 463C718.305882 459.61176 773.647059 521.7294099999999 797.364706 564.64706C813.894264 591.1567299999999 848.78445 599.2472 875.294118 582.71765C901.803786 566.1880900000001 909.894264 531.2979 893.364706 504.7882400000001C884.329412 487.8470600000001 800.752941 344.41176 687.811765 344.41176L687.811765 344.41176L678.776471 344.41176C608.752941 348.92941 556.8 392.9764700000001 509.364706 510.4352899999999C461.929412 627.8941199999999 431.435294 638.05882 431.435294 638.05882C380.174711 572.3690300000001 346.721038 494.56979 334.305882 412.1764700000001C327.756435 380.9886300000001 297.164315 361.0152599999999 265.976471 367.5647100000001C234.788626 374.1141500000001 214.815258 404.7062699999999 221.364706 435.89412C241.694118 530.7647099999999 300.423529 746.48235 421.270588 756.64706zM677.647059 1242.294118L677.647059 1129.352941L338.823529 1129.352941L338.823529 1242.294118L677.647059 1242.294118zM903.529412 1468.176471L903.529412 1355.235294L338.823529 1355.235294L338.823529 1468.176471L903.529412 1468.176471zM1903.05882 1451.235294L1677.17647 1677.117647C1666.57318 1687.808244 1652.13953 1693.8215519999999 1637.08235 1693.8215519999999C1622.02517 1693.8215519999999 1607.59153 1687.808244 1596.98824 1677.117647L919.341176 999.470588C909.115192 988.861653 903.440895 974.675912 903.528392 959.941176L903.528392 677.58824L1185.88235 677.58824C1200.77756 677.8004000000001 1214.98557 683.8895500000001 1225.41176 694.5294100000001L1903.05882 1372.176471C1924.58219 1394.134692 1924.58219 1429.2770719999999 1903.05882 1451.235294zM1162.16471 790.5294100000001L1016.47059 790.5294100000001L1016.47059 936.223529L1468.23529 1387.988235L1613.92941 1242.294118L1162.16471 790.5294100000001zM1694.11765 1322.4823529999999L1548.42353 1468.176471L1637.64706 1557.4L1783.34118 1411.705882L1694.11765 1322.4823529999999z" />
    <glyph glyph-name="announcement"
      unicode="&#xEA0D;"
      horiz-adv-x="1920" d="M1587.16235 1888.7215059C1598.68235 1912.21327058 1624.43294 1924.41091764 1650.63529 1918.53797646C1676.16 1912.43915293 1694.11765 1889.7379765 1694.11765 1863.5356235L1694.11765 1863.5356235L1694.11765 1349.540329C1822.87059 1323.337976 1920 1209.267388 1920 1072.947388C1920 936.627388 1822.87059 822.4438600000001 1694.11765 796.2415100000001L1694.11765 796.2415100000001L1694.11765 282.35915C1694.11765 256.1568 1676.16 233.34268 1650.63529 227.3568C1646.23059 226.34033 1641.93882 225.8885600000001 1637.64706 225.8885600000001C1616.52706 225.8885600000001 1596.87529 237.63445 1587.16235 257.06033C1379.23765 672.7968000000001 964.178824 677.65327 960 677.65327L960 677.65327L564.705882 677.65327L564.705882 112.9473900000001L652.461176 112.9473900000001C640.602353 203.0744500000001 634.955294 359.94974 715.934118 463.6297400000001C768.338824 530.7167999999999 845.590588 564.71209 945.882353 564.71209L945.882353 564.71209L945.882353 451.7709199999999C881.392941 451.7709199999999 835.312941 432.9097400000001 805.044706 394.28386C736.263529 306.41562 759.981176 130.45327 774.776471 70.02974C778.955294 53.2015100000001 775.115294 35.3568 764.498824 21.69092C753.769412 8.02504 737.28 0.00621 720 0.00621L720 0.00621L508.235294 0.00621C477.063529 0.00621 451.764706 25.19209 451.764706 56.4767999999999L451.764706 56.4767999999999L451.764706 677.65327L395.2941180000001 677.65327C239.548235 677.65327 112.941176 804.2603300000001 112.941176 960.006212L112.941176 960.006212L112.941176 1016.4768L56.4705882 1016.4768C25.2988235 1016.4768 0 1041.6626820000001 0 1072.947388C0 1104.119153 25.2988235 1129.417976 56.4705882 1129.417976L56.4705882 1129.417976L112.941176 1129.417976L112.941176 1185.888565C112.941176 1341.521506 239.548235 1468.241506 395.2941180000001 1468.241506L395.2941180000001 1468.241506L959.887059 1468.241506C976.828235 1468.354447 1380.36706 1475.243859 1587.16235 1888.7215059zM1581.17647 1670.293271C1386.46588 1427.9215060000001 1128.96 1372.128565 1016.47059 1359.253271L1016.47059 1359.253271L1016.47059 786.52856C1128.96 773.65327 1386.46588 717.97327 1581.17647 475.48856L1581.17647 475.48856zM903.529412 1355.3003290000001L395.2941180000001 1355.3003290000001C301.891765 1355.3003290000001 225.882353 1279.2909180000001 225.882353 1185.888565L225.882353 1185.888565L225.882353 960.006212C225.882353 866.6038599999999 301.891765 790.59445 395.2941180000001 790.59445L395.2941180000001 790.59445L903.529412 790.59445L903.529412 1355.3003290000001zM1694.11765 1231.855624L1694.11765 913.92621C1759.73647 937.305035 1807.05882 999.422682 1807.05882 1072.947388C1807.05882 1146.472094 1759.73647 1208.4768 1694.11765 1231.855624L1694.11765 1231.855624z" />
    <glyph glyph-name="apple"
      unicode="&#xEA0E;"
      horiz-adv-x="1920" d="M1380.66395 1920L1386.2108 1867.1351925C1400.1345 1735.369377 1354.74095 1588.434644 1264.97266 1473.988562C1263.61425 1472.40375 1262.02944 1471.271741 1260.78423 1469.686929C1275.72675 1470.252933 1290.66926 1471.3849420000001 1306.17778 1469.913331C1373.8719 1467.083309 1551.82367 1441.27351 1668.19417 1267.736572L1668.19417 1267.736572L1699.77721 1220.531808L1652.45925 1189.061966C1611.70694 1163.252167 1486.61997 1070.31425 1488.31798 895.9849099999999C1490.2424 675.2431999999999 1668.19417 594.30458 1688.45713 585.8145199999999L1688.45713 585.8145199999999L1737.0203 565.4383600000001L1720.71938 515.1771699999999C1707.24847 471.70804 1668.42057 360.43158 1592.57599 247.2307100000001C1520.24063 139.4634799999999 1430.35914 5.20724 1278.33037 2.3772200000001C1206.56101 0.566 1160.71466 22.1873700000001 1118.71714 40.6391100000001C1078.75723 58.29845 1044.45736 73.4673700000001 987.630525 73.4673700000001C927.520862 73.4673700000001 891.183382 57.73245 849.072657 39.3939C809.565552 22.1873700000001 764.738007 2.7168200000001 702.590728 0.1132C699.760706 0 696.930684 0 694.327064 0C547.052729 0 444.71914 150.8967600000001 376.5722150000001 251.30594L376.5722150000001 251.30594L371.385341 259.04116C200.971353 515.9440099999999 105.685923 934.230953 262.918539 1212.834149C349.517206 1366.447733 507.092821 1463.460881 674.177309 1465.9513C739.267811 1466.8569069999999 799.151072 1446.48075 850.77067 1426.104593C859.600338 1545.984317 916.653578 1657.826779 975.857634 1730.048936C1061.8903 1835.552149 1206.44781 1912.75514415 1327.57275 1917.73598255L1327.57275 1917.73598255L1380.66395 1920zM1297.91412 1357.0520609999999C1224.22035 1364.862921 1153.583 1335.770297 1090.75652 1310.413301C1043.32535 1291.282354 1002.45984 1274.868227 964.537547 1274.868227C932.162097 1274.868227 898.201836 1285.848712 862.883163 1299.659218L862.883163 1299.659218L857.449522 1300.112022L857.22312 1301.810035C849.751862 1304.866458 842.280605 1307.809681 834.582945 1310.866105C785.000963 1331.01586 730.551343 1357.3916629999999 676.101724 1352.750427C548.977144 1350.8260129999999 428.418214 1275.887035 361.516499 1157.13932C216.619382 900.51294 337.857516 510.08313 470.302537 314.92483C540.71348 211.1196299999999 615.426056 108.55964 698.062693 113.2008699999999C739.041409 114.89889 767.568029 127.3509799999999 803.905509 143.0859000000001C850.77067 163.5752600000001 903.97508 186.66824 987.630525 186.66824C1068.34275 186.66824 1119.39634 164.1412700000001 1164.45029 144.2179100000001C1201.69338 127.69058 1232.59721 113.7668799999999 1276.17955 115.57809C1362.55181 117.1629 1422.88788 197.3091199999999 1498.50606 310.28359C1548.08805 384.2037600000001 1579.78429 456.9919199999999 1597.78323 505.5551C1521.14624 551.5146500000001 1377.15473 667.9983500000001 1375.11711 894.9661000000001C1373.4191 1075.068687 1472.35666 1189.62797 1540.72999 1247.1340129999999C1455.37653 1339.7323270000002 1345.34528 1355.014445 1297.91412 1357.0520609999999zM1274.82114 1795.365839C1198.29735 1774.876481 1116.11352 1722.917281 1063.58831 1658.505984L1063.58831 1658.505984L1063.47511 1658.392783C1016.94955 1601.565945 967.48077 1507.609221 962.38673 1410.935676C1047.06098 1423.614174 1127.66 1482.705029 1175.99678 1543.946701C1234.40843 1618.319675 1269.3875 1708.767172 1274.82114 1795.365839z" />
    <glyph glyph-name="arrow-down"
      unicode="&#xEA0F;"
      horiz-adv-x="1920" d="M902.830849 1920L902.830849 220.0754199999999L426.364697 696.5415700000001L345 615.17687L960.176872 0L1575.58359 615.17687L1494.21889 696.5415700000001L1017.75274 220.0754199999999L1017.75274 1920z" />
    <glyph glyph-name="arrow-end"
      unicode="&#xEA10;"
      horiz-adv-x="1920" d="M1304.824 1574.998L1223.574 1493.749L1700.04 1017.167L0 1017.167L0 902.245L1700.04 902.245L1223.574 425.78L1304.824 344.53L1920 959.707z" />
    <glyph glyph-name="arrow-left"
      unicode="&#xEA11;"
      horiz-adv-x="1920" d="M615.176872 1575L0 959.708206L615.176872 344.5313300000001L696.426648 425.7811099999999L219.960496 902.24726L1920 902.24726L1920 1017.169151L219.960496 1017.169151L696.426648 1493.750224z" />
    <glyph glyph-name="arrow-open-down"
      unicode="&#xEA12;"
      horiz-adv-x="1920" d="M0.153 1393.8540950000001L92.3213552 1486.153L960.087725 618.51718L1827.72354 1486.153L1920.153 1393.8540950000001L960.087725 433.9193700000001z" />
    <glyph glyph-name="arrow-open-end"
      unicode="&#xEA13;"
      horiz-adv-x="1920" d="M526.298905 1920L434 1827.8316448L1301.63582 960.065275L434 92.4294600000001L526.298905 0L1486.23363 960.065275z" />
    <glyph glyph-name="arrow-open-left"
      unicode="&#xEA14;"
      horiz-adv-x="1920" d="M1394.0060950000002 1920L1486.305 1827.8316448L618.6691800000001 960.065275L1486.305 92.4294600000001L1394.0060950000002 0L434.0713700000001 960.065275z" />
    <glyph glyph-name="arrow-open-right"
      unicode="&#xEA15;"
      horiz-adv-x="1920" d="M526.298905 1920L434 1827.8316448L1301.63582 960.065275L434 92.4294600000001L526.298905 0L1486.23363 960.065275z" />
    <glyph glyph-name="arrow-open-start"
      unicode="&#xEA16;"
      horiz-adv-x="1920" d="M1394.0060950000002 1920L1486.305 1827.8316448L618.6691800000001 960.065275L1486.305 92.4294600000001L1394.0060950000002 0L434.0713700000001 960.065275z" />
    <glyph glyph-name="arrow-open-up"
      unicode="&#xEA17;"
      horiz-adv-x="1920" d="M0.1529999999999 526.1459050000003L92.3213551999999 433.8470000000002L960.087725 1301.4828200000002L1827.72354 433.8470000000002L1920.1529999999996 526.1459050000001L960.087725 1486.0806300000002z" />
    <glyph glyph-name="arrow-right"
      unicode="&#xEA18;"
      horiz-adv-x="1920" d="M1304.824 1574.998L1223.574 1493.749L1700.04 1017.167L0 1017.167L0 902.245L1700.04 902.245L1223.574 425.78L1304.824 344.53L1920 959.707z" />
    <glyph glyph-name="arrow-start"
      unicode="&#xEA19;"
      horiz-adv-x="1920" d="M615.176872 1575L0 959.708206L615.176872 344.5313300000001L696.426648 425.7811099999999L219.960496 902.24726L1920 902.24726L1920 1017.169151L219.960496 1017.169151L696.426648 1493.750224z" />
    <glyph glyph-name="arrow-up"
      unicode="&#xEA1A;"
      horiz-adv-x="1920" d="M960.406 1920L345 1304.824L426.364 1223.458L902.83 1699.925L902.83 0L1017.752 0L1017.752 1699.925L1494.218 1223.458L1575.584 1304.824z" />
    <glyph glyph-name="assignment"
      unicode="&#xEA1B;"
      horiz-adv-x="1920" d="M1468.2137 1920L1468.2137 1355.302422L1355.27419 1355.302422L1355.27419 1807.060484L112.939516 1807.060484L112.939516 112.96775L1355.27419 112.96775L1355.27419 338.8467800000001L1468.2137 338.8467800000001L1468.2137 0.0282299999999L0 0.0282299999999L0 1920L1468.2137 1920zM1597.64239 1338.689019C1619.77853 1360.8251639999999 1655.46742 1360.8251639999999 1677.60356 1338.689019L1677.60356 1338.689019L1903.4826 1112.809988C1925.5058 1090.786783 1925.5058 1055.097896 1903.4826 1032.961751L1903.4826 1032.961751L1225.8455 355.32466C1215.22919 344.8212799999999 1200.88587 338.83549 1185.86491 338.83549L1185.86491 338.83549L959.985883 338.83549C928.814576 338.83549 903.516125 364.13394 903.516125 395.3052499999999L903.516125 395.3052499999999L903.516125 621.18428C903.516125 636.20523 909.501919 650.54855 920.005294 661.0519300000001L920.005294 661.0519300000001zM1442.35055 1023.70071L1016.45564 597.8058000000001L1016.45564 451.7750000000001L1162.48643 451.7750000000001L1588.38135 877.66992L1442.35055 1023.70071zM677.637094 677.6540299999999L677.637094 564.71452L338.818547 564.71452L338.818547 677.6540299999999L677.637094 677.6540299999999zM903.516125 903.53307L903.516125 790.59355L338.818547 790.59355L338.818547 903.53307L903.516125 903.53307zM1637.62298 1218.973133L1522.19879 1103.548948L1668.22958 957.518154L1783.65377 1072.942339L1637.62298 1218.973133zM1129.39516 1581.170159L1129.39516 1129.412097L338.818547 1129.412097L338.818547 1581.170159L1129.39516 1581.170159zM1016.45564 1468.230644L451.758062 1468.230644L451.758062 1242.351612L1016.45564 1242.351612L1016.45564 1468.230644z" />
    <glyph glyph-name="attach-media"
      unicode="&#xEA1C;"
      horiz-adv-x="1920" d="M101.002105 689.36295L101.002105 1542.045053C658.711579 1689.682947 1177.31368 1577.514526 1315.45263 1542.045053L1315.45263 1146.120842L1416.50526 1176.436632L1416.50526 1617.834526L1380.83368 1628.849263C1354.56 1637.135579 729.246316 1826.0029474 31.68 1627.5355789999999L-0.0505263158 1614.8029470000001L-0.0505263158 613.57347L35.6210526 602.6597899999999C52.9010526 597.2029500000001 331.402105 513.12716 717.827368 513.12716C840 513.12716 973.692632 523.1313700000001 1112.53895 545.05979L1112.53895 646.3145300000001C636.176842 568.5039999999999 222.063158 658.33979 101.002105 689.36295M1919.90905 1130.6901050000001L1919.90905 437.16589C1919.808 334.09221 1837.65221 250.3195800000001 1736.59958 250.3195800000001C1644.74274 250.3195800000001 1569.25642 319.8437899999999 1556.01853 409.78063C1554.60379 418.87537 1553.29011 427.97011 1553.29011 437.4690499999999C1553.29011 540.5427400000001 1635.44589 624.51747 1736.59958 624.51747C1753.27326 624.51747 1769.13853 621.5869499999999 1784.49853 617.2416800000001C1796.52379 614.008 1808.04379 609.35958 1818.85642 603.70063L1818.85642 603.70063L1818.85642 995.380632L1779.04168 983.557474L1416.46484 876.2395799999999L1388.57432 868.05432L1388.57432 288.1132600000001C1388.57432 285.28379 1387.86695 282.6564200000001 1387.76589 279.9280000000001C1383.52168 180.6943200000001 1303.58905 100.96379 1205.16379 100.96379C1104.01011 100.96379 1021.85432 184.9385299999999 1021.85432 288.1132600000001C1021.85432 356.6269500000001 1058.53642 416.1469500000001 1112.49853 448.68589C1139.88379 465.1574700000001 1171.21011 475.2627399999999 1205.16379 475.2627399999999C1234.97432 475.2627399999999 1262.66274 467.2795799999999 1287.52168 454.44589L1287.52168 454.44589L1287.52168 943.540632L1315.41221 951.725895L1416.46484 981.637474L1777.42484 1088.450105L1919.90905 1130.6901050000001zM527.514947 1439.365474L1088.35705 1109.529684L527.514947 779.79495L527.514947 1439.365474zM628.567579 1262.7254739999998L628.567579 956.434947L888.980211 1109.529684L628.567579 1262.7254739999998zM1736.59958 351.37221C1698.50274 351.37221 1667.78274 379.06063 1658.48589 416.0458900000001C1656.66695 423.0185300000001 1654.34274 429.7890500000001 1654.34274 437.4690499999999C1654.34274 484.86274 1691.22695 523.4648400000001 1736.59958 523.4648400000001C1755.49642 523.4648400000001 1772.27116 515.68379 1786.11537 504.36589C1805.61853 488.60168 1818.85642 465.0564199999999 1818.85642 437.4690499999999C1818.85642 389.9743200000001 1781.97221 351.37221 1736.59958 351.37221L1736.59958 351.37221zM1205.16379 202.0164199999999C1159.79116 202.0164199999999 1122.90695 240.61853 1122.90695 288.1132600000001C1122.90695 335.608 1159.79116 374.21011 1205.16379 374.21011C1250.53642 374.21011 1287.52168 335.608 1287.52168 288.1132600000001C1287.52168 240.61853 1250.53642 202.0164199999999 1205.16379 202.0164199999999L1205.16379 202.0164199999999z" />
    <glyph glyph-name="audio-off"
      unicode="&#xEA1D;"
      horiz-adv-x="1920" d="M1129.4317 1807L1129.4317 112.8524600000001L936.637705 112.8524600000001L484.865027 564.6251299999999L169.414754 564.6251299999999C76.9447931 564.6251299999999 1.52195439 639.12327 0.0227446084 731.24305L-5e-13 734.03989L-5e-13 1185.812567C-5e-13 1278.282529 74.4981391 1353.705367 166.617911 1355.204577L169.414754 1355.227322L484.865027 1355.227322L936.637705 1807L1129.4317 1807zM1016.48853 1694.05683L983.396178 1694.05683L564.715848 1275.376501L564.715848 644.47596L983.396178 225.7956300000001L1016.48853 225.7956300000001L1016.48853 1694.05683zM1840.15059 1282.277647L1920 1202.4282349999999L1677.62824 960.056471L1920 717.57176L1840.15059 637.72235L1597.66588 880.09412L1355.29412 637.72235L1275.44471 717.57176L1517.81647 960.056471L1275.44471 1202.4282349999999L1355.29412 1282.277647L1597.66588 1039.905882L1840.15059 1282.277647zM451.772678 1242.284152L169.414754 1242.284152C138.665976 1242.284152 113.451979 1217.488338 112.950773 1186.7459549999999L112.94317 1185.812567L112.94317 734.03989C112.94317 703.1793 137.84968 678.0748799999999 168.484687 677.5758699999999L169.414754 677.5682999999999L451.772678 677.5682999999999L451.772678 1242.284152z" />
    <glyph glyph-name="audio"
      unicode="&#xEA1E;"
      horiz-adv-x="1920" d="M1129.4317 1807L1129.4317 112.8524600000001L936.637705 112.8524600000001L484.865027 564.6251299999999L169.414754 564.6251299999999C76.0107531 564.6251299999999 0 640.63589 0 734.03989L0 734.03989L0 1185.812567C0 1279.2165690000002 76.0107531 1355.227322 169.414754 1355.227322L169.414754 1355.227322L484.865027 1355.227322L936.637705 1807L1129.4317 1807zM1016.48853 1694.05683L983.396178 1694.05683L564.715848 1275.376501L564.715848 644.47596L983.396178 225.7956300000001L1016.48853 225.7956300000001L1016.48853 1694.05683zM1671.9768 1558.942917C1831.90433 1398.902445 1920 1186.2304570000001 1920 959.892345C1920 733.6671799999999 1831.90433 520.9951900000001 1671.9768 360.95472L1671.9768 360.95472L1592.12598 440.8055400000001C1730.82019 579.49975 1807.05683 763.8230000000001 1807.05683 959.892345C1807.05683 1156.074631 1730.82019 1340.397883 1592.12598 1479.092096L1592.12598 1479.092096zM1432.86482 1319.198451C1528.52768 1222.180268 1581.1592 1094.554486 1581.1592 959.926228C1581.1592 825.2979700000001 1528.52768 697.67219 1432.86482 600.65401L1432.86482 600.65401L1352.33634 679.94011C1427.10471 755.72498 1468.21603 855.1149700000001 1468.21603 959.926228C1468.21603 1064.737489 1427.10471 1164.127479 1352.33634 1239.912346L1352.33634 1239.912346zM451.772678 1242.284152L169.414754 1242.284152C138.355383 1242.284152 112.94317 1216.984882 112.94317 1185.812567L112.94317 1185.812567L112.94317 734.03989C112.94317 702.8675699999999 138.355383 677.5682999999999 169.414754 677.5682999999999L169.414754 677.5682999999999L451.772678 677.5682999999999L451.772678 1242.284152z" />
    <glyph glyph-name="bank"
      unicode="&#xEA1F;"
      horiz-adv-x="1920" d="M561.272621 315.9943699999999L755.546927 315.9943699999999C780.4209 315.9943699999999 784.602301 325.3221100000001 786.746609 330.36123L820.841106 404.4470799999999C839.496586 452.6940099999999 898.572271 492.68535 957.004664 494.50801C984.022945 495.2585200000001 1040.31103 495.0440900000001 1087.80745 494.72244L1140.98629 494.50801C1194.16513 494.50801 1237.8018 465.9887200000001 1270.5025 409.8078499999999L1310.60106 339.26011C1316.4979 328.53857 1328.18438 317.0665200000001 1343.51618 317.0665200000001L1527.28338 316.31602L1472.81796 549.9383700000001L1509.91448 569.1299300000001C1625.38547 628.7416900000001 1704.18879 759.75891 1693.36003 873.8361L1689.71471 911.4687L1724.13085 927.551014C1795.96517 960.895004 1829.95246 998.74204 1804.11354 1102.7409790000002C1789.10339 1163.7465419999999 1737.53278 1220.4634879999999 1670.41594 1205.560548L1631.49675 1196.8761L1611.87633 1231.61389C1494.58268 1440.255059 1325.28957 1520.988256 1204.02895 1552.080722C1010.07629 1601.828668 836.172908 1556.905415 772.165314 1516.914071L731.423462 1491.504021L701.724796 1529.136626C637.824417 1610.2986839999999 534.361556 1619.304778 452.877852 1583.709265C483.112594 1532.996381 509.487583 1471.8836019999999 524.497739 1415.488302L535.755356 1373.245434L496.72895 1353.732231C432.828572 1321.782042 349.8438520000001 1202.772947 332.367741 1117.9655659999999L328.722418 1100.167809L314.891631 1088.2669C251.312899 1033.372615 169.829194 1013.644981 107.2154 1007.426488L107.2154 827.0901799999999C107.2154 771.55261 133.483174 742.49723 189.771259 735.5282299999999C282.298149 724.05618 328.507987 674.62988 369.249839 630.9932200000001C414.601954 582.53186 453.84279 540.6106299999999 564.596299 530.21074L624.851354 524.5283199999999L611.87829 465.3454200000001C604.694859 432.3230799999999 581.10747 367.5649800000001 561.272621 315.9943699999999L561.272621 315.9943699999999zM1662.482 208.45732L1343.30175 209.85112C1291.30228 209.85112 1242.73371 239.5497900000001 1216.8948 287.26064L1177.65396 356.30736C1159.64177 387.29261 1146.99035 387.29261 1140.98629 387.29261L1087.16416 387.50704C1041.16875 387.72147 986.596115 388.0431200000001 960.328342 387.29261C942.852232 386.7565300000001 923.124598 371.9608100000001 919.479274 362.6330700000001L884.527054 286.40292C863.083974 237.4054799999999 815.909197 208.7789700000001 755.546927 208.7789700000001L402.80826 208.7789700000001L432.828572 282.5431699999999C445.158343 312.8851199999999 472.069408 381.28855 490.296026 433.6096600000001C384.259995 457.9475600000001 333.225465 512.5201999999999 290.982597 557.7651000000001C254.529361 596.7915 230.513111 622.41598 176.69098 629.0633399999999C66.0446867 642.6796999999999 0 716.7655400000001 0 827.0901799999999L0 1111.854288L53.6077002 1111.854288C125.442019 1111.854288 189.342397 1129.115967 232.228557 1159.565141C256.995315 1248.9827850000001 327.97191 1363.917694 409.348399 1425.030472C388.655827 1483.784512 358.313868 1537.1777809999999 334.190403 1568.055817L299.98869 1611.478054L344.590297 1644.285966C474.642578 1739.922104 646.61608 1730.91601 755.332496 1628.954164C866.086005 1678.594895 1050.71092 1702.182283 1230.61837 1655.9724449999999C1365.9242 1621.341871 1552.26457 1533.961319 1687.14154 1315.241902C1784.81477 1315.670764 1879.7004 1243.407584 1908.2197 1128.57989C1940.59875 998.098748 1906.61147 907.71617 1801.54037 846.9250300000001C1799.18164 713.0129999999999 1718.12679 574.3834899999999 1595.68681 495.0440900000001L1662.482 208.45732zM850.722038 1274.553658L797.75763 1367.723841C945.929314 1451.995146 1120.04712 1452.531223 1263.2869 1369.117641L1209.46477 1276.4835349999998C1097.74632 1341.241637 967.050748 1340.5983449999999 850.722038 1274.553658M750.518525 1066.5021729999999C750.518525 1007.319272 702.486025 959.286773 643.303124 959.286773C584.120223 959.286773 536.087724 1007.319272 536.087724 1066.5021729999999C536.087724 1125.685074 584.120223 1173.717574 643.303124 1173.717574C702.486025 1173.717574 750.518525 1125.685074 750.518525 1066.5021729999999" />
    <glyph glyph-name="blueprint-lock"
      unicode="&#xEA20;"
      horiz-adv-x="1920" d="M1300.007 1243.0004C1485.521 1243.0004 1636.515 1092.0624 1636.515 906.4934L1636.515 906.4934L1636.515 673.0003999999999L1779.015 673.0003999999999L1779.015 158.3684000000001C1779.015 71.0144 1707.985 -0.0146 1620.632 -0.0146L1620.632 -0.0146L979.382 -0.0146C892.029 -0.0146 821 71.0144 821 158.3684000000001L821 158.3684000000001L821 673.0003999999999L963.5 673.0003999999999L963.5 906.4934C963.5 1092.0624 1114.492 1243.0004 1300.007 1243.0004zM1676 569.9854L924.015 569.9854L924.015 158.3684000000001C924.015 127.8163999999999 948.886 103.0003999999999 979.382 103.0003999999999L979.382 103.0003999999999L1620.632 103.0003999999999C1651.184 103.0003999999999 1676 127.8163999999999 1676 158.3684000000001L1676 158.3684000000001L1676 569.9854zM1581.1771 1581.1766L1581.1771 1355.2946L1468.2351 1355.2946L1468.2351 1468.2356L451.7651 1468.2356L451.7651 451.7646L564.7061 451.7646L564.7061 338.8236L338.8241 338.8236L338.8241 1581.1766L1581.1771 1581.1766zM1300.007 1139.9854C1171.294 1139.9854 1066.515 1035.2064 1066.515 906.4934L1066.515 906.4934L1066.515 673.0003999999999L1533.5 673.0003999999999L1533.5 906.4934C1533.5 1035.2064 1428.721 1139.9854 1300.007 1139.9854zM1242.353 1920L1242.353 1694.118L1129.412 1694.118L1129.412 1807.059L112.941 1807.059L112.941 790.588L225.882 790.588L225.882 677.6479999999999L1e-13 677.6479999999999L1e-13 1920L1242.353 1920z" />
    <glyph glyph-name="blueprint"
      unicode="&#xEA21;"
      horiz-adv-x="1920" d="M790.5886 169.412L790.5886 112.941L847.0586 112.941L847.0586 0L677.6466 0L677.6466 169.412L790.5886 169.412zM1208.383 112.941L1208.383 0L1027.721 0L1027.721 112.941L1208.383 112.941zM1569.816 112.941L1569.816 0L1389.154 0L1389.154 112.941L1569.816 112.941zM1920 169.412L1920 0L1750.588 0L1750.588 112.941L1807.059 112.941L1807.059 169.412L1920 169.412zM1581.1771 1581.1761999999999L1581.1771 1355.2942L1468.2351 1355.2942L1468.2351 1468.2352L451.7651 1468.2352L451.7651 451.7642000000001L564.7061 451.7642000000001L564.7061 338.8232000000001L338.8241 338.8232000000001L338.8241 1581.1761999999999L1581.1771 1581.1761999999999zM1920 530.7349999999999L1920 350.0730000000001L1807.059 350.0730000000001L1807.059 530.7349999999999L1920 530.7349999999999zM790.588 530.846L790.588 350.184L677.647 350.184L677.647 530.846L790.588 530.846zM1242.353 1919.9996L1242.353 1694.1176L1129.412 1694.1176L1129.412 1807.0586L112.941 1807.0586L112.941 790.5876000000001L225.882 790.5876000000001L225.882 677.6476L1e-13 677.6476L1e-13 1919.9996L1242.353 1919.9996zM1920 892.1690000000001L1920 711.508L1807.059 711.508L1807.059 892.1690000000001L1920 892.1690000000001zM790.588 892.279L790.588 711.617L677.647 711.617L677.647 892.279L790.588 892.279zM1920 1242.3534L1920 1072.9414000000002L1807.059 1072.9414000000002L1807.059 1129.4114L1750.588 1129.4114L1750.588 1242.3534L1920 1242.3534zM847.0584 1242.3534L847.0584 1129.4114L790.5884 1129.4114L790.5884 1072.9414000000002L677.6474 1072.9414000000002L677.6474 1242.3534L847.0584 1242.3534zM1208.492 1242.353L1208.492 1129.412L1027.831 1129.412L1027.831 1242.353L1208.492 1242.353zM1569.927 1242.353L1569.927 1129.412L1389.265 1129.412L1389.265 1242.353L1569.927 1242.353z" />
    <glyph glyph-name="bold"
      unicode="&#xEA22;"
      horiz-adv-x="1920" d="M480.285714 1097.142857L1028.85714 1097.142857C1180.12571 1097.142857 1303.14286 1220.1599999999999 1303.14286 1371.428571C1303.14286 1522.6971429999999 1180.12571 1645.714286 1028.85714 1645.714286L480.285714 1645.714286L480.285714 1097.142857zM480.285714 274.2857100000001L1166 274.2857100000001C1317.26857 274.2857100000001 1440.28571 397.30286 1440.28571 548.57143C1440.28571 699.8399999999999 1317.26857 822.8571400000001 1166 822.8571400000001L480.285714 822.8571400000001L480.285714 274.2857100000001zM1166 0L206 0L206 1920L1028.85714 1920C1331.39429 1920 1577.42857 1673.965714 1577.42857 1371.428571C1577.42857 1237.165714 1528.88 1114.0114290000001 1448.65143 1018.697143C1607.87429 922.56 1714.57143 747.7028600000001 1714.57143 548.57143C1714.57143 246.0342900000001 1468.53714 0 1166 0L1166 0z" />
    <glyph glyph-name="bookmark"
      unicode="&#xEA23;"
      horiz-adv-x="1920" d="M960.481253 507.8907799999999L1472.23864 200.8363400000001L1472.23864 1749.414204C1472.23864 1780.688266 1446.65077 1806.276136 1415.37671 1806.276136L505.585796 1806.276136C474.311734 1806.276136 448.723864 1780.688266 448.723864 1749.414204L448.723864 200.8363400000001L960.481253 507.8907799999999zM1585.96251 0L960.481253 375.28875L335 0L335 1749.414204C335 1843.4638394 411.536161 1920 505.585796 1920L1415.37671 1920C1509.42635 1920 1585.96251 1843.4638394 1585.96251 1749.414204L1585.96251 0z" />
    <glyph glyph-name="box"
      unicode="&#xEA24;"
      horiz-adv-x="1920" d="M1468.23529 1920L1468.23529 1807.058824L451.764706 1807.058824L451.764706 1920L0 1920L0 1468.122353L112.941176 1468.122353L112.941176 451.65176L0 451.65176L0 0L451.764706 0L451.764706 112.94118L1468.23529 112.94118L1468.23529 0L1920.11294 0L1920.11294 451.65176L1807.17176 451.65176L1807.17176 1468.122353L1920.11294 1468.122353L1920.11294 1920L1468.23529 1920zM1581.28941 1581.176471L1807.17176 1581.176471L1807.17176 1807.058824L1581.28941 1807.058824L1581.28941 1581.176471zM112.941176 1581.176471L338.823529 1581.176471L338.823529 1807.058824L112.941176 1807.058824L112.941176 1581.176471zM225.882353 1468.122353L451.764706 1468.122353L451.764706 1694.117647L1468.23529 1694.117647L1468.23529 1468.122353L1694.23059 1468.122353L1694.23059 451.65176L1468.23529 451.65176L1468.23529 225.8823500000001L451.764706 225.8823500000001L451.764706 451.65176L225.882353 451.65176L225.882353 1468.122353zM1581.28941 112.94118L1807.17176 112.94118L1807.17176 338.8235299999999L1581.28941 338.8235299999999L1581.28941 112.94118zM112.941176 112.94118L338.823529 112.94118L338.823529 338.8235299999999L112.941176 338.8235299999999L112.941176 112.94118z" />
    <glyph glyph-name="bullet-list-alpha"
      unicode="&#xEA25;"
      horiz-adv-x="1920" d="M546.15 316.3830000000001L1906.15 316.3830000000001L1906.15 436.3830000000001L546.15 436.3830000000001L546.15 316.3830000000001zM546.15 1437.384L1906.15 1437.384L1906.15 1557.384L546.15 1557.384L546.15 1437.384zM546.15 876.384L1906.15 876.384L1906.15 996.384L546.15 996.384L546.15 876.384zM271.675 1490.5L234.55 1600.225C231.8 1607.192 228.867 1615.396 225.75 1624.838C222.633 1634.279 219.517 1644.5 216.4 1655.5C213.65 1644.317 210.717 1633.958 207.6 1624.425C204.483 1614.892 201.55 1606.642 198.8 1599.675L161.95 1490.5L271.675 1490.5zM419.35 1337.325L347.3 1337.325C339.233 1337.325 332.725 1339.204 327.775 1342.963C322.825 1346.721 319.067 1351.533 316.5 1357.4L292.85 1427.25L140.5 1427.25L116.85 1357.4C114.833 1352.267 111.213 1347.638 105.988 1343.513C100.762 1339.387 94.3 1337.325 86.6 1337.325L14 1337.325L169.1 1738L264.25 1738L419.35 1337.325zM230.325 807.45C242.608 807.45 252.646 809.008 260.437 812.125C268.229 815.242 274.325 819.2750000000001 278.725 824.2249999999999C283.125 829.175 286.15 834.7660000000001 287.8 841C289.45 847.233 290.275 853.558 290.275 859.9749999999999C290.275 867.308 289.312 873.9079999999999 287.388 879.7750000000001C285.463 885.6410000000001 282.162 890.5909999999999 277.488 894.625C272.812 898.659 266.625 901.775 258.925 903.975C251.225 906.175 241.509 907.275 229.775 907.275L164.875 907.275L164.875 807.45L230.325 807.45zM164.875 1068.425L164.875 969.425L213.275 969.425C223.542 969.425 232.8 970.158 241.05 971.625C249.3 973.092 256.312 975.658 262.088 979.325C267.863 982.992 272.263 988.033 275.287 994.45C278.312 1000.867 279.825 1008.933 279.825 1018.65C279.825 1028.183 278.633 1036.112 276.25 1042.438C273.867 1048.762 270.2 1053.85 265.25 1057.7C260.3 1061.55 254.021 1064.3 246.412 1065.95C238.804 1067.6 229.775 1068.425 219.325 1068.425L164.875 1068.425zM219.325 1138C247.009 1138 270.567 1135.433 290 1130.3C309.433 1125.167 325.292 1117.925 337.575 1108.575C349.858 1099.225 358.796 1087.859 364.388 1074.475C369.979 1061.091 372.775 1046.15 372.775 1029.65C372.775 1020.667 371.492 1012.004 368.925 1003.663C366.358 995.321 362.325 987.529 356.825 980.288C351.325 973.046 344.267 966.4 335.65 960.35C327.034 954.3 316.675 949.075 304.575 944.675C330.975 938.258 350.5 927.9 363.15 913.6C375.8 899.299 382.125 880.7840000000001 382.125 858.05C382.125 841 378.825 825.1410000000001 372.225 810.4749999999999C365.625 795.808 355.954 783.021 343.213 772.113C330.471 761.204 314.75 752.6790000000001 296.05 746.538C277.35 740.396 255.992 737.325 231.975 737.325L71.925 737.325L71.925 1138L219.325 1138zM345.975 291C348.175 291 350.375 290.588 352.575 289.762C354.775 288.9369999999999 356.883 287.5160000000001 358.9 285.5L395.75 246.7249999999999C379.617 225.6410000000001 359.404 209.7380000000001 335.113 199.012C310.8210000000001 188.288 282.0830000000001 182.925 248.9 182.925C218.467 182.925 191.196 188.1040000000001 167.088 198.463C142.979 208.8209999999999 122.537 223.1210000000001 105.762 241.3630000000001C88.988 259.6040000000001 76.108 281.2370000000001 67.125 306.262C58.141 331.288 53.65 358.4659999999999 53.65 387.8C53.65 417.683 58.508 445.137 68.225 470.163C77.942 495.1869999999999 91.6 516.7750000000001 109.2 534.925C126.8 553.075 147.883 567.192 172.45 577.2750000000001C197.017 587.358 224.058 592.4000000000001 253.575 592.4000000000001C268.608 592.4000000000001 282.771 591.0709999999999 296.062 588.413C309.354 585.7550000000001 321.775 582.088 333.325 577.413C344.875 572.738 355.508 567.0999999999999 365.225 560.5C374.942 553.9000000000001 383.558 546.75 391.075 539.05L359.725 496.9749999999999C357.7080000000001 494.4079999999999 355.325 492.0709999999999 352.575 489.963C349.825 487.854 345.975 486.8 341.025 486.8C337.725 486.8 334.608 487.5329999999999 331.675 489C328.742 490.4659999999999 325.625 492.2550000000001 322.325 494.3630000000001C319.025 496.47 315.404 498.7619999999999 311.463 501.2380000000001C307.521 503.713 302.846 506.0050000000001 297.437 508.1130000000001C292.029 510.22 285.704 512.008 278.463 513.4749999999999C271.221 514.942 262.742 515.675 253.025 515.675C237.625 515.675 223.554 512.8340000000001 210.812 507.1500000000001C198.071 501.4659999999999 187.071 493.171 177.812 482.2619999999999C168.554 471.354 161.404 457.971 156.363 442.1130000000001C151.321 426.2550000000001 148.8 408.1500000000001 148.8 387.8C148.8 367.2660000000001 151.596 349.0250000000001 157.187 333.0750000000001C162.779 317.125 170.387 303.6959999999999 180.012 292.788C189.637 281.8800000000001 200.867 273.5840000000001 213.7 267.9000000000001C226.533 262.2159999999999 240.283 259.375 254.95 259.375C263.384 259.375 271.0830000000001 259.788 278.05 260.6130000000001C285.017 261.4369999999999 291.525 262.8119999999999 297.575 264.7380000000001C303.625 266.663 309.308 269.2290000000001 314.625 272.4369999999999C319.942 275.646 325.35 279.7249999999999 330.85 284.675C333.05 286.5080000000001 335.433 288.021 338 289.213C340.567 290.404 343.225 291 345.975 291L345.975 291z" />
    <glyph glyph-name="bullet-list-circle-outline"
      unicode="&#xEA26;"
      horiz-adv-x="1920" d="M559.706 344.059L1919.706 344.059L1919.706 464.059L559.706 464.059L559.706 344.059zM559.706 1465.059L1919.706 1465.059L1919.706 1585.059L559.706 1585.059L559.706 1465.059zM559.706 904.059L1919.706 904.059L1919.706 1024.059L559.706 1024.059L559.706 904.059zM169.5 1355C75.888 1355 0 1430.888 0 1524.5C0 1618.112 75.888 1694 169.5 1694C263.112 1694 339 1618.112 339 1524.5C339 1430.888 263.112 1355 169.5 1355L169.5 1355zM169.5 1439C216.72 1439 255 1477.28 255 1524.5C255 1571.72 216.72 1610 169.5 1610C122.28 1610 84 1571.72 84 1524.5C84 1477.28 122.28 1439 169.5 1439L169.5 1439zM169.5 231C75.888 231 0 306.8879999999999 0 400.5C0 494.1120000000001 75.888 570 169.5 570C263.112 570 339 494.1120000000001 339 400.5C339 306.8879999999999 263.112 231 169.5 231L169.5 231zM169.5 315C216.72 315 255 353.279 255 400.5C255 447.721 216.72 486 169.5 486C122.28 486 84 447.721 84 400.5C84 353.279 122.28 315 169.5 315L169.5 315zM169.5 793C75.888 793 0 868.8879999999999 0 962.5C0 1056.112 75.888 1132 169.5 1132C263.112 1132 339 1056.112 339 962.5C339 868.8879999999999 263.112 793 169.5 793L169.5 793zM169.5 877C216.72 877 255 915.279 255 962.5C255 1009.72 216.72 1048 169.5 1048C122.28 1048 84 1009.72 84 962.5C84 915.279 122.28 877 169.5 877L169.5 877z" />
    <glyph glyph-name="bullet-list-roman"
      unicode="&#xEA27;"
      horiz-adv-x="1920" d="M368 1334.325L461.5 1334.325L461.5 1735L368 1735L368 1334.325zM639 1435.325L1919 1435.325L1919 1555.325L639 1555.325L639 1435.325zM368.275 735.325L461.775 735.325L461.775 1136L368.275 1136L368.275 735.325zM183.225 735.325L276.725 735.325L276.725 1136L183.225 1136L183.225 735.325zM639 874.325L1919 874.325L1919 994.326L639 994.326L639 874.325zM368.225 185.3250000000001L461.725 185.3250000000001L461.725 586.001L368.225 586.001L368.225 185.3250000000001zM184.225 185.3250000000001L277.725 185.3250000000001L277.725 586.001L184.225 586.001L184.225 185.3250000000001zM1 185.3250000000001L94.5 185.3250000000001L94.5 586.001L1 586.001L1 185.3250000000001zM639 314.3250000000001L1919 314.3250000000001L1919 434.3250000000001L639 434.3250000000001L639 314.3250000000001z" />
    <glyph glyph-name="bullet-list-square"
      unicode="&#xEA28;"
      horiz-adv-x="1920" d="M0 1360L320 1360L320 1680L0 1680L0 1360zM560 1460.059L1920 1460.059L1920 1580.059L560 1580.059L560 1460.059zM0 800L320 800L320 1120L0 1120L0 800zM560 899.058L1920 899.058L1920 1019.059L560 1019.059L560 899.058zM0 240L320 240L320 560L0 560L0 240zM560 339.059L1920 339.059L1920 459.059L560 459.059L560 339.059z" />
    <glyph glyph-name="bullet-list"
      unicode="&#xEA29;"
      horiz-adv-x="1920" d="M169.411765 564.58824C262.814118 564.58824 338.823529 488.57882 338.823529 395.1764700000001C338.823529 301.7741200000001 262.814118 225.7647099999999 169.411765 225.7647099999999C76.0094118 225.7647099999999 0 301.7741200000001 0 395.1764700000001C0 488.57882 76.0094118 564.58824 169.411765 564.58824zM1920 451.64706L1920 338.70588L564.705882 338.70588L564.705882 451.64706L1920 451.64706zM169.411765 1129.294118C262.814118 1129.294118 338.823529 1053.284706 338.823529 959.882353C338.823529 866.48 262.814118 790.4705899999999 169.411765 790.4705899999999C76.0094118 790.4705899999999 0 866.48 0 959.882353C0 1053.284706 76.0094118 1129.294118 169.411765 1129.294118zM1920 1016.352941L1920 903.41176L564.705882 903.41176L564.705882 1016.352941L1920 1016.352941zM169.411765 1694C262.814118 1694 338.823529 1617.9905880000001 338.823529 1524.588235C338.823529 1431.185882 262.814118 1355.176471 169.411765 1355.176471C76.0094118 1355.176471 0 1431.185882 0 1524.588235C0 1617.9905880000001 76.0094118 1694 169.411765 1694zM1920 1581.058824L1920 1468.117647L564.705882 1468.117647L564.705882 1581.058824L1920 1581.058824z" />
    <glyph glyph-name="calculator"
      unicode="&#xEA2A;"
      horiz-adv-x="1920" d="M480 1813.333333C362.179253 1813.333333 266.666667 1717.820747 266.666667 1600L266.666667 320C266.666667 202.1792499999999 362.179253 106.6666700000001 480 106.6666700000001L1440 106.6666700000001C1557.82075 106.6666700000001 1653.33333 202.1792499999999 1653.33333 320L1653.33333 1600C1653.33333 1717.820747 1557.82075 1813.333333 1440 1813.333333L480 1813.333333zM480 1920L1440 1920C1616.73112 1920 1760 1776.73112 1760 1600L1760 320C1760 143.2688800000001 1616.73112 0 1440 0L480 0C303.26888 0 160 143.2688800000001 160 320L160 1600C160 1776.73112 303.26888 1920 480 1920zM586.666667 1600C527.756293 1600 480 1552.243707 480 1493.333333L480 1386.666667C480 1327.756293 527.756293 1280 586.666667 1280L1333.33333 1280C1392.24371 1280 1440 1327.756293 1440 1386.666667L1440 1493.333333C1440 1552.243707 1392.24371 1600 1333.33333 1600L586.666667 1600zM586.666667 1706.666667L1333.33333 1706.666667C1451.15408 1706.666667 1546.66667 1611.15408 1546.66667 1493.333333L1546.66667 1386.666667C1546.66667 1268.84592 1451.15408 1173.333333 1333.33333 1173.333333L586.666667 1173.333333C468.84592 1173.333333 373.333333 1268.84592 373.333333 1386.666667L373.333333 1493.333333C373.333333 1611.15408 468.84592 1706.666667 586.666667 1706.666667zM480 1066.666667L586.666667 1066.666667C645.57704 1066.666667 693.333333 1018.910373 693.333333 960C693.333333 901.08963 645.57704 853.3333299999999 586.666667 853.3333299999999L480 853.3333299999999C421.089627 853.3333299999999 373.333333 901.08963 373.333333 960C373.333333 1018.910373 421.089627 1066.666667 480 1066.666667zM906.666667 1066.666667L1013.33333 1066.666667C1072.24371 1066.666667 1120 1018.910373 1120 960C1120 901.08963 1072.24371 853.3333299999999 1013.33333 853.3333299999999L906.666667 853.3333299999999C847.756293 853.3333299999999 800 901.08963 800 960C800 1018.910373 847.756293 1066.666667 906.666667 1066.666667zM1333.33333 1066.666667L1440 1066.666667C1498.91037 1066.666667 1546.66667 1018.910373 1546.66667 960C1546.66667 901.08963 1498.91037 853.3333299999999 1440 853.3333299999999L1333.33333 853.3333299999999C1274.42296 853.3333299999999 1226.66667 901.08963 1226.66667 960C1226.66667 1018.910373 1274.42296 1066.666667 1333.33333 1066.666667zM480 746.6666700000001L586.666667 746.6666700000001C645.57704 746.6666700000001 693.333333 698.9103700000001 693.333333 640C693.333333 581.0896299999999 645.57704 533.3333299999999 586.666667 533.3333299999999L480 533.3333299999999C421.089627 533.3333299999999 373.333333 581.0896299999999 373.333333 640C373.333333 698.9103700000001 421.089627 746.6666700000001 480 746.6666700000001zM906.666667 746.6666700000001L1013.33333 746.6666700000001C1072.24371 746.6666700000001 1120 698.9103700000001 1120 640C1120 581.0896299999999 1072.24371 533.3333299999999 1013.33333 533.3333299999999L906.666667 533.3333299999999C847.756293 533.3333299999999 800 581.0896299999999 800 640C800 698.9103700000001 847.756293 746.6666700000001 906.666667 746.6666700000001zM1333.33333 746.6666700000001L1440 746.6666700000001C1498.91037 746.6666700000001 1546.66667 698.9103700000001 1546.66667 640C1546.66667 581.0896299999999 1498.91037 533.3333299999999 1440 533.3333299999999L1333.33333 533.3333299999999C1274.42296 533.3333299999999 1226.66667 581.0896299999999 1226.66667 640C1226.66667 698.9103700000001 1274.42296 746.6666700000001 1333.33333 746.6666700000001zM480 426.6666700000001L586.666667 426.6666700000001C645.57704 426.6666700000001 693.333333 378.9103700000001 693.333333 320C693.333333 261.08963 645.57704 213.3333299999999 586.666667 213.3333299999999L480 213.3333299999999C421.089627 213.3333299999999 373.333333 261.08963 373.333333 320C373.333333 378.9103700000001 421.089627 426.6666700000001 480 426.6666700000001zM906.666667 426.6666700000001L1013.33333 426.6666700000001C1072.24371 426.6666700000001 1120 378.9103700000001 1120 320C1120 261.08963 1072.24371 213.3333299999999 1013.33333 213.3333299999999L906.666667 213.3333299999999C847.756293 213.3333299999999 800 261.08963 800 320C800 378.9103700000001 847.756293 426.6666700000001 906.666667 426.6666700000001zM1333.33333 426.6666700000001L1440 426.6666700000001C1498.91037 426.6666700000001 1546.66667 378.9103700000001 1546.66667 320C1546.66667 261.08963 1498.91037 213.3333299999999 1440 213.3333299999999L1333.33333 213.3333299999999C1274.42296 213.3333299999999 1226.66667 261.08963 1226.66667 320C1226.66667 378.9103700000001 1274.42296 426.6666700000001 1333.33333 426.6666700000001z" />
    <glyph glyph-name="calendar-add"
      unicode="&#xEA2B;"
      horiz-adv-x="1920" d="M1411.8238 1919.9999000000005C1442.9948 1919.9999000000005 1468.2938 1894.7009 1468.2938 1863.5289L1468.2938 1863.5289L1468.2938 1807.0589L1637.7058 1807.0589C1731.1088 1807.0589 1807.1178 1731.0489 1807.1178 1637.6469L1807.1178 1637.6469L1807.1178 -0.0001L112.9998 -0.0001L112.9998 1637.6469C112.9998 1731.0489 189.0088 1807.0589 282.4118000000001 1807.0589L282.4118000000001 1807.0589L451.8228 1807.0589L451.8228 1863.5289C451.8228 1894.7009 477.1228 1919.9999000000005 508.2938 1919.9999000000005C539.4658 1919.9999000000005 564.7648 1894.7009 564.7648 1863.5289L564.7648 1863.5289L564.7648 1807.0589L1355.3528 1807.0589L1355.3528 1863.5289C1355.3528 1894.7009 1380.6518 1919.9999000000005 1411.8238 1919.9999000000005zM1694.1758 1355.2948999999999L225.9418 1355.2948999999999L225.9418 112.9419L1694.1758 112.9419L1694.1758 1355.2948999999999zM1016.5294 1129.4122L1016.5294 790.5881999999999L1355.3534 790.5881999999999L1355.3534 677.6472000000001L1016.5294 677.6472000000001L1016.5294 338.8232000000001L903.5884 338.8232000000001L903.5884 677.6472000000001L564.7644 677.6472000000001L564.7644 790.5881999999999L903.5884 790.5881999999999L903.5884 1129.4122L1016.5294 1129.4122zM451.8228 1694.1179L282.4118000000001 1694.1179C251.3528 1694.1179 225.9418 1668.8189 225.9418 1637.6469L225.9418 1637.6469L225.9418 1468.2349L1694.1758 1468.2349L1694.1758 1637.6469C1694.1758 1668.8189 1668.7648 1694.1179 1637.7058 1694.1179L1637.7058 1694.1179L1468.2938 1694.1179L1468.2938 1637.6469C1468.2938 1606.4749 1442.9948 1581.1759 1411.8238 1581.1759C1380.6518 1581.1759 1355.3528 1606.4749 1355.3528 1637.6469L1355.3528 1637.6469L1355.3528 1694.1179L564.7648 1694.1179L564.7648 1637.6469C564.7648 1606.4749 539.4658 1581.1759 508.2938 1581.1759C477.1228 1581.1759 451.8228 1606.4749 451.8228 1637.6469L451.8228 1637.6469L451.8228 1694.1179z" />
    <glyph glyph-name="calendar-clock"
      unicode="&#xEA2C;"
      horiz-adv-x="1920" d="M1439.667 693.3330000000001L1333 693.3330000000001L1333 480C1333 465.8130000000001 1338.653 452.2670000000001 1348.573 442.24L1471.987 318.934L1547.4 394.347L1439.667 502.0799999999999L1439.667 693.3330000000001zM1386.333 106.6669999999999C1180.467 106.6669999999999 1013 274.1330000000001 1013 480C1013 685.867 1180.467 853.3330000000001 1386.333 853.3330000000001C1592.2 853.3330000000001 1759.667 685.867 1759.667 480C1759.667 274.1330000000001 1592.2 106.6669999999999 1386.333 106.6669999999999M1386.333 960C1121.693 960 906.333 744.6400000000001 906.333 480C906.333 215.3599999999999 1121.693 0 1386.333 0C1650.973 0 1866.333 215.3599999999999 1866.333 480C1866.333 744.6400000000001 1650.973 960 1386.333 960M1546.333 1493.333L159.666 1493.333L159.666 1653.333C159.666 1682.773 183.666 1706.667 213 1706.667L373 1706.667L373 1653.333C373 1623.893 396.894 1600 426.3330000000001 1600C455.773 1600 479.666 1623.893 479.666 1653.333L479.666 1706.667L1226.333 1706.667L1226.333 1653.333C1226.333 1623.893 1250.227 1600 1279.667 1600C1309.107 1600 1333 1623.893 1333 1653.333L1333 1706.667L1493 1706.667C1522.333 1706.667 1546.333 1682.773 1546.333 1653.333L1546.333 1493.333zM1493 1813.333L1333 1813.333L1333 1866.667C1333 1896.107 1309.107 1920 1279.667 1920C1250.227 1920 1226.333 1896.107 1226.333 1866.667L1226.333 1813.333L479.666 1813.333L479.666 1866.667C479.666 1896.107 455.773 1920 426.3330000000001 1920C396.894 1920 373 1896.107 373 1866.667L373 1813.333L213 1813.333C124.787 1813.333 53 1741.547 53 1653.333L53 106.6669999999999L799.666 106.6669999999999L799.666 213.3330000000001L159.666 213.3330000000001L159.666 1386.667L1546.333 1386.667L1546.333 1066.667L1653 1066.667L1653 1653.333C1653 1741.547 1581.213 1813.333 1493 1813.333L1493 1813.333z" />
    <glyph glyph-name="calendar-day"
      unicode="&#xEA2D;"
      horiz-adv-x="1920" d="M1411.8238 1919.9999000000005C1442.9948 1919.9999000000005 1468.2938 1894.7009 1468.2938 1863.5289L1468.2938 1863.5289L1468.2938 1807.0589L1637.7058 1807.0589C1731.1088 1807.0589 1807.1178 1731.0489 1807.1178 1637.6469L1807.1178 1637.6469L1807.1178 -0.0001L112.9998 -0.0001L112.9998 1637.6469C112.9998 1731.0489 189.0088 1807.0589 282.4118 1807.0589L282.4118 1807.0589L451.8228 1807.0589L451.8228 1863.5289C451.8228 1894.7009 477.1228 1919.9999000000005 508.2938 1919.9999000000005C539.4658 1919.9999000000005 564.7647999999999 1894.7009 564.7647999999999 1863.5289L564.7647999999999 1863.5289L564.7647999999999 1807.0589L1355.3528 1807.0589L1355.3528 1863.5289C1355.3528 1894.7009 1380.6518 1919.9999000000005 1411.8238 1919.9999000000005zM1694.1758 1355.2948999999999L225.9418 1355.2948999999999L225.9418 112.9419L1694.1758 112.9419L1694.1758 1355.2948999999999zM451.8228 1694.1179L282.4118 1694.1179C251.3528 1694.1179 225.9418 1668.8189 225.9418 1637.6469L225.9418 1637.6469L225.9418 1468.2349L1694.1758 1468.2349L1694.1758 1637.6469C1694.1758 1668.8189 1668.7648 1694.1179 1637.7058 1694.1179L1637.7058 1694.1179L1468.2938 1694.1179L1468.2938 1637.6469C1468.2938 1606.4749 1442.9948 1581.1759 1411.8238 1581.1759C1380.6518 1581.1759 1355.3528 1606.4749 1355.3528 1637.6469L1355.3528 1637.6469L1355.3528 1694.1179L564.7647999999999 1694.1179L564.7647999999999 1637.6469C564.7647999999999 1606.4749 539.4658 1581.1759 508.2938 1581.1759C477.1228 1581.1759 451.8228 1606.4749 451.8228 1637.6469L451.8228 1637.6469L451.8228 1694.1179zM959.5054 503.3788999999999C877.1714 503.3788999999999 817.9904 537.8259 765.1334 599.2659000000001L674.3294 515.9149C736.5594 440.9229000000001 828.6064 387.8399 957.4724 387.8399C1111.7504 387.8399 1216.3344 484.6309000000001 1216.3344 619.0299L1216.3344 621.0639000000001C1216.3344 755.4639 1110.7334 811.7079000000001 998.8094 825.2619L1204.7014 1033.5249L1204.7014 1129.4119L715.5524 1129.4119L715.5524 1017.9399L1035.6284 1017.9399L835.9474 808.5459000000001L857.0674 728.3579L917.3784 728.3579C1020.8324 728.3579 1087.4674 687.8118999999999 1087.4674 615.9819L1087.4674 613.8349000000001C1087.4674 547.1999000000001 1032.4654 503.3788999999999 959.5054 503.3788999999999" />
    <glyph glyph-name="calendar-days"
      unicode="&#xEA2E;"
      horiz-adv-x="1920" d="M1411.8238 1919.9999000000005C1442.9948 1919.9999000000005 1468.2938 1894.7009 1468.2938 1863.5289L1468.2938 1863.5289L1468.2938 1807.0589L1637.7058 1807.0589C1731.1088 1807.0589 1807.1178 1731.0489 1807.1178 1637.6469L1807.1178 1637.6469L1807.1178 -0.0001L112.9998 -0.0001L112.9998 1637.6469C112.9998 1731.0489 189.0088 1807.0589 282.4118000000001 1807.0589L282.4118000000001 1807.0589L451.8228 1807.0589L451.8228 1863.5289C451.8228 1894.7009 477.1228 1919.9999000000005 508.2938 1919.9999000000005C539.4658 1919.9999000000005 564.7648 1894.7009 564.7648 1863.5289L564.7648 1863.5289L564.7648 1807.0589L1355.3528 1807.0589L1355.3528 1863.5289C1355.3528 1894.7009 1380.6518 1919.9999000000005 1411.8238 1919.9999000000005zM1694.1758 1355.2948999999999L225.9418 1355.2948999999999L225.9418 112.9419L1694.1758 112.9419L1694.1758 1355.2948999999999zM451.8228 1694.1179L282.4118000000001 1694.1179C251.3528 1694.1179 225.9418 1668.8189 225.9418 1637.6469L225.9418 1637.6469L225.9418 1468.2349L1694.1758 1468.2349L1694.1758 1637.6469C1694.1758 1668.8189 1668.7648 1694.1179 1637.7058 1694.1179L1637.7058 1694.1179L1468.2938 1694.1179L1468.2938 1637.6469C1468.2938 1606.4749 1442.9948 1581.1759 1411.8238 1581.1759C1380.6518 1581.1759 1355.3528 1606.4749 1355.3528 1637.6469L1355.3528 1637.6469L1355.3528 1694.1179L564.7648 1694.1179L564.7648 1637.6469C564.7648 1606.4749 539.4658 1581.1759 508.2938 1581.1759C477.1228 1581.1759 451.8228 1606.4749 451.8228 1637.6469L451.8228 1637.6469L451.8228 1694.1179zM959.5054 503.3788999999999C877.1714 503.3788999999999 817.9904 537.8259 765.1334 599.2659000000001L674.3294 515.9149C736.5594 440.9229000000001 828.6064 387.8399 957.4724 387.8399C1111.7504 387.8399 1216.3344 484.6309000000001 1216.3344 619.0299L1216.3344 621.0639000000001C1216.3344 755.4639 1110.7334 811.7079000000001 998.8094 825.2619L1204.7014 1033.5249L1204.7014 1129.4119L715.5524 1129.4119L715.5524 1017.9399L1035.6284 1017.9399L835.9474 808.5459000000001L857.0674 728.3579L917.3784 728.3579C1020.8324 728.3579 1087.4674 687.8118999999999 1087.4674 615.9819L1087.4674 613.8349000000001C1087.4674 547.1999000000001 1032.4654 503.3788999999999 959.5054 503.3788999999999" />
    <glyph glyph-name="calendar-month"
      unicode="&#xEA2F;"
      horiz-adv-x="1920" d="M1411.8238 1919.9999000000005C1442.9948 1919.9999000000005 1468.2938 1894.7009 1468.2938 1863.5289L1468.2938 1863.5289L1468.2938 1807.0589L1637.7058 1807.0589C1731.1088 1807.0589 1807.1178 1731.0489 1807.1178 1637.6469L1807.1178 1637.6469L1807.1178 -0.0001L112.9998 -0.0001L112.9998 1637.6469C112.9998 1731.0489 189.0088 1807.0589 282.4118000000001 1807.0589L282.4118000000001 1807.0589L451.8228 1807.0589L451.8228 1863.5289C451.8228 1894.7009 477.1228 1919.9999000000005 508.2938 1919.9999000000005C539.4658 1919.9999000000005 564.7648 1894.7009 564.7648 1863.5289L564.7648 1863.5289L564.7648 1807.0589L1355.3528 1807.0589L1355.3528 1863.5289C1355.3528 1894.7009 1380.6518 1919.9999000000005 1411.8238 1919.9999000000005zM1694.1758 1355.2948999999999L225.9418 1355.2948999999999L225.9418 112.9419L1694.1758 112.9419L1694.1758 1355.2948999999999zM677.706 677.6469999999999L677.706 338.8230000000001L338.882 338.8230000000001L338.882 677.6469999999999L677.706 677.6469999999999zM1129.471 677.6469999999999L1129.471 338.8230000000001L790.647 338.8230000000001L790.647 677.6469999999999L1129.471 677.6469999999999zM1581.235 677.6469999999999L1581.235 338.8230000000001L1242.412 338.8230000000001L1242.412 677.6469999999999L1581.235 677.6469999999999zM564.765 564.7059999999999L451.824 564.7059999999999L451.824 451.7650000000001L564.765 451.7650000000001L564.765 564.7059999999999zM1016.529 564.7059999999999L903.588 564.7059999999999L903.588 451.7650000000001L1016.529 451.7650000000001L1016.529 564.7059999999999zM1468.294 564.7059999999999L1355.353 564.7059999999999L1355.353 451.7650000000001L1468.294 451.7650000000001L1468.294 564.7059999999999zM677.706 1129.412L677.706 790.588L338.882 790.588L338.882 1129.412L677.706 1129.412zM1129.471 1129.412L1129.471 790.588L790.647 790.588L790.647 1129.412L1129.471 1129.412zM1581.235 1129.412L1581.235 790.588L1242.412 790.588L1242.412 1129.412L1581.235 1129.412zM564.765 1016.47L451.824 1016.47L451.824 903.529L564.765 903.529L564.765 1016.47zM1016.529 1016.47L903.588 1016.47L903.588 903.529L1016.529 903.529L1016.529 1016.47zM1468.294 1016.47L1355.353 1016.47L1355.353 903.529L1468.294 903.529L1468.294 1016.47zM451.8228 1694.1179L282.4118000000001 1694.1179C251.3528 1694.1179 225.9418 1668.8189 225.9418 1637.6469L225.9418 1637.6469L225.9418 1468.2349L1694.1758 1468.2349L1694.1758 1637.6469C1694.1758 1668.8189 1668.7648 1694.1179 1637.7058 1694.1179L1637.7058 1694.1179L1468.2938 1694.1179L1468.2938 1637.6469C1468.2938 1606.4749 1442.9948 1581.1759 1411.8238 1581.1759C1380.6518 1581.1759 1355.3528 1606.4749 1355.3528 1637.6469L1355.3528 1637.6469L1355.3528 1694.1179L564.7648 1694.1179L564.7648 1637.6469C564.7648 1606.4749 539.4658 1581.1759 508.2938 1581.1759C477.1228 1581.1759 451.8228 1606.4749 451.8228 1637.6469L451.8228 1637.6469L451.8228 1694.1179z" />
    <glyph glyph-name="calendar-reserved"
      unicode="&#xEA30;"
      horiz-adv-x="1920" d="M1411.8238 1919.9999000000005C1442.9948 1919.9999000000005 1468.2938 1894.7009 1468.2938 1863.5289L1468.2938 1863.5289L1468.2938 1807.0589L1637.7058 1807.0589C1731.1088 1807.0589 1807.1178 1731.0489 1807.1178 1637.6469L1807.1178 1637.6469L1807.1178 -0.0001L112.9998 -0.0001L112.9998 1637.6469C112.9998 1731.0489 189.0088 1807.0589 282.4118 1807.0589L282.4118 1807.0589L451.8228 1807.0589L451.8228 1863.5289C451.8228 1894.7009 477.1228 1919.9999000000005 508.2938 1919.9999000000005C539.4658 1919.9999000000005 564.7647999999999 1894.7009 564.7647999999999 1863.5289L564.7647999999999 1863.5289L564.7647999999999 1807.0589L1355.3528 1807.0589L1355.3528 1863.5289C1355.3528 1894.7009 1380.6518 1919.9999000000005 1411.8238 1919.9999000000005zM1694.1758 1355.2948999999999L225.9418 1355.2948999999999L225.9418 112.9419L1694.1758 112.9419L1694.1758 1355.2948999999999zM1371.899 1112.8665999999998L1451.748 1033.0156L847.061 428.3286000000001L468.369 807.1335999999999L548.219 886.9836L847.061 588.1415999999999L1371.899 1112.8665999999998zM451.8228 1694.1179L282.4118 1694.1179C251.3528 1694.1179 225.9418 1668.8189 225.9418 1637.6469L225.9418 1637.6469L225.9418 1468.2349L1694.1758 1468.2349L1694.1758 1637.6469C1694.1758 1668.8189 1668.7648 1694.1179 1637.7058 1694.1179L1637.7058 1694.1179L1468.2938 1694.1179L1468.2938 1637.6469C1468.2938 1606.4749 1442.9948 1581.1759 1411.8238 1581.1759C1380.6518 1581.1759 1355.3528 1606.4749 1355.3528 1637.6469L1355.3528 1637.6469L1355.3528 1694.1179L564.7647999999999 1694.1179L564.7647999999999 1637.6469C564.7647999999999 1606.4749 539.4658 1581.1759 508.2938 1581.1759C477.1228 1581.1759 451.8228 1606.4749 451.8228 1637.6469L451.8228 1637.6469L451.8228 1694.1179z" />
    <glyph glyph-name="certified"
      unicode="&#xEA31;"
      horiz-adv-x="1920" d="M960 1905L1226.66667 1663.08L1586.56 1676.946667L1635.30667 1320.04L1920 1099.453333L1728 794.81333L1804.26667 442.7066700000001L1461.33333 332.8399999999999L1293.44 14.22667L960 150.4400000000001L626.56 14.22667L458.666667 332.8399999999999L115.733333 442.7066700000001L192 794.81333L0 1099.453333L284.693333 1320.04L333.44 1676.946667L693.333333 1663.08L960 1905zM960 1761L764.906667 1584.04L732.693333 1554.813333L689.173333 1556.413333L425.92 1566.546667L390.293333 1305.6399999999999L384.426667 1262.44L349.9733330000001 1235.88L141.866667 1074.493333L282.24 851.56L305.493333 814.8666700000001L296.213333 772.2L240.533333 514.81333L491.306667 434.3866700000001L532.8 421.05333L553.173333 382.54667L675.84 149.5866699999999L919.68 249.1066699999999L960 265.6400000000001L1000.32 249.1066699999999L1244.16 149.5866699999999L1366.93333 382.54667L1387.2 421.05333L1428.69333 434.3866700000001L1679.46667 514.81333L1623.78667 772.2L1614.50667 814.8666700000001L1637.76 851.56L1778.24 1074.493333L1570.02667 1235.88L1535.57333 1262.44L1529.70667 1305.6399999999999L1493.97333 1566.546667L1230.93333 1556.413333L1187.30667 1554.813333L1155.09333 1584.04L960 1761zM1301.056 1147.517333L1365.58933 1062.504L803.989333 636.2639999999999L548.949333 891.3040000000001L624.362667 966.717333L813.589333 777.4906699999999L1301.056 1147.517333z" />
    <glyph glyph-name="chat"
      unicode="&#xEA32;"
      horiz-adv-x="1920" d="M677.680941 1920.0338823529L677.680941 1581.097412L790.622118 1581.097412L790.622118 1806.979765L1807.09271 1806.979765L1807.09271 1016.504471L1581.09741 1016.504471L1581.09741 756.7397599999999L1321.44565 1016.504471L1242.27388 1016.504471L1242.27388 1468.156235L677.680941 1468.156235L0.0338823529 1468.156235L0.0338823529 451.6856499999999L338.744471 451.6856499999999L338.744471 32.78682L756.739765 451.6856499999999L1242.27388 451.6856499999999L1242.27388 903.56329L1275.02682 903.56329L1694.15153 484.43859L1694.15153 903.56329L1920.03388 903.56329L1920.03388 1920.0338823529L677.680941 1920.0338823529zM338.823529 1016.470588L903.529412 1016.470588L903.529412 1129.4117649999998L338.823529 1129.4117649999998L338.823529 1016.470588zM338.823529 790.58824L677.76 790.58824L677.76 903.64235L338.823529 903.64235L338.823529 790.58824zM112.975059 1355.328L1129.44565 1355.328L1129.44565 564.62682L710.433882 564.62682L451.685647 304.97506L451.685647 564.62682L112.975059 564.62682L112.975059 1355.328z" />
    <glyph glyph-name="check-dark"
      unicode="&#xEA33;"
      horiz-adv-x="1920" d="M1827.70109 1616.934725L698.834569 488.19875L92.2989053 1094.734412L0 1002.435507L698.834569 303.6009400000001L1919.86945 1524.76637z" />
    <glyph glyph-name="check-mark-indeterminate"
      unicode="&#xEA34;"
      horiz-adv-x="1920" d="M288 1056L288 864L1632 864L1632 1056z" />
    <glyph glyph-name="check-mark"
      unicode="&#xEA35;"
      horiz-adv-x="1920" d="M1827.70109 1616.934725L698.834569 488.19875L92.2989053 1094.734412L0 1002.435507L698.834569 303.6009400000001L1919.86945 1524.76637z" />
    <glyph glyph-name="check-plus"
      unicode="&#xEA36;"
      horiz-adv-x="1920" d="M1709.28872 960.327153L1709.28872 105.7226700000001L341.807607 105.7226700000001L341.807607 903.46747L455.754871 903.46747L455.754871 219.66994L1595.34146 219.66994L1595.34146 960.327153L1709.28872 960.327153zM1840.35086 1485.430329L1920 1403.844088L1122.36915 624.2169100000001L757.851857 980.757898L837.500994 1062.116244L1122.36915 783.62913L1840.35086 1485.430329zM455.789055 1815L455.789055 1473.044261L797.744794 1473.044261L797.744794 1359.096998L455.789055 1359.096998L455.789055 1017.369154L341.841791 1017.369154L341.841791 1359.096998L-1e-13 1359.096998L-1e-13 1473.044261L341.841791 1473.044261L341.841791 1815L455.789055 1815zM1538.32225 1473.124024L1538.32225 1359.1767610000002L911.612294 1359.1767610000002L911.612294 1473.124024L1538.32225 1473.124024z" />
    <glyph glyph-name="check"
      unicode="&#xEA37;"
      horiz-adv-x="1920" d="M1827.70109 1616.934725L698.834569 488.19875L92.2989053 1094.734412L0 1002.435507L698.834569 303.6009400000001L1919.86945 1524.76637z" />
    <glyph glyph-name="circle-arrow-down"
      unicode="&#xEA38;"
      horiz-adv-x="1920" d="M1559.23847 1559.238468C1228.77843 1889.6985081 691.221573 1889.6985081 360.761532 1559.238468C30.3014919 1228.778427 30.3014919 691.2215699999999 360.761532 360.76153C691.221573 30.3014900000001 1228.77843 30.3014900000001 1559.23847 360.76153C1889.69851 691.2215699999999 1889.69851 1228.778427 1559.23847 1559.238468zM280.86307 280.8630700000001C-93.6210233 655.34716 -93.6210233 1264.652837 280.86307 1639.1369300000001C655.347163 2013.6210233 1264.65284 2013.6210233 1639.13693 1639.1369300000001C2013.62102 1264.652837 2013.62102 655.34716 1639.13693 280.8630700000001C1264.65284 -93.62102 655.347163 -93.62102 280.86307 280.8630700000001zM640.406151 880.1015400000001L903.511787 616.9958999999999L903.431889 1439.390774L1016.56811 1439.390774L1016.48821 616.9958999999999L1279.59385 880.1015400000001L1359.49231 800.20308L960 400.71076L560.507688 800.20308L640.406151 880.1015400000001z" />
    <glyph glyph-name="circle-arrow-up"
      unicode="&#xEA39;"
      horiz-adv-x="1920" d="M1559.23847 360.76153C1889.69851 691.2215699999999 1889.69851 1228.778427 1559.23847 1559.238468C1228.77843 1889.6985081 691.221573 1889.6985081 360.761532 1559.238468C30.3014919 1228.778427 30.3014919 691.2215699999999 360.761532 360.76153C691.221573 30.3014900000001 1228.77843 30.3014900000001 1559.23847 360.76153zM280.86307 1639.1369300000001C655.347163 2013.6210233 1264.65284 2013.6210233 1639.13693 1639.1369300000001C2013.62102 1264.652837 2013.62102 655.34716 1639.13693 280.8630700000001C1264.65284 -93.62102 655.347163 -93.62102 280.86307 280.8630700000001C-93.6210233 655.34716 -93.6210233 1264.652837 280.86307 1639.1369300000001zM640.406151 1039.898462L560.507688 1119.796925L960 1519.289237L1359.49231 1119.796925L1279.59385 1039.898462L1016.48821 1303.004099L1016.56811 480.60923L903.431889 480.60923L903.511787 1303.004099L640.406151 1039.898462z" />
    <glyph glyph-name="clear-text-formatting"
      unicode="&#xEA3A;"
      horiz-adv-x="1920" d="M1235.1411 300.0777000000001L1044.8241 300.0777000000001L864.8271 480.0757000000001L1499.9761 1115.2247L1775.1321 840.0697L1235.1411 300.0777000000001zM1902.4501 882.5497L1542.4561 1242.5437C1518.9351 1265.9427 1481.0161 1265.9427 1457.6171 1242.5437L737.6281 522.5546999999999C714.1091 499.0346999999999 714.1091 461.1157000000001 737.6281 437.5967000000001L875.1461 300.0777000000001L0.0001 300.0777000000001L0.0001 180.0797L1259.9801 180.0797C1275.9401 180.0797 1291.1801 186.4396999999999 1302.4601 197.5997L1902.4501 797.5907C1925.8491 821.1097 1925.8491 859.0297 1902.4501 882.5497L1902.4501 882.5497zM120.0339 1739.996L120.0339 1619.997L615.0269 1619.997L243.3919 559.934L356.5499 520.2139999999999L742.1049 1619.997L1200.0169 1619.997L1200.0169 1739.996z" />
    <glyph glyph-name="clock"
      unicode="&#xEA3B;"
      horiz-adv-x="1920" d="M960 1807.058824C492.875294 1807.058824 112.941176 1427.124706 112.941176 960C112.941176 492.8752899999999 492.875294 112.94118 960 112.94118C1427.12471 112.94118 1807.05882 492.8752899999999 1807.05882 960C1807.05882 1427.124706 1427.12471 1807.058824 960 1807.058824M960 0C430.644706 0 0 430.6447100000001 0 960C0 1489.355294 430.644706 1920 960 1920C1489.35529 1920 1920 1489.355294 1920 960C1920 430.6447100000001 1489.35529 0 960 0M1377.90494 575.9548199999999L903.552 931.719529L903.552 1524.6607060000001L1016.49318 1524.6607060000001L1016.49318 988.190118L1445.66965 666.4207100000001L1377.90494 575.9548199999999z" />
    <glyph glyph-name="closed-captioning-off"
      unicode="&#xEA3C;"
      horiz-adv-x="1920" d="M1264.8398 1463.721059C1295.85311 1269.259274 1465.16897 1120.060145 1668.85093 1120.060145C1671.36552 1120.060145 1673.88011 1120.060145 1676.3947 1120.898342L1676.3947 1120.898342L1676.3947 290.24477C1676.3947 198.04306 1600.95694 122.6053 1508.75523 122.6053L1508.75523 122.6053L167.63947 122.6053C75.4377617 122.6053 0 198.04306 0 290.24477L0 290.24477L0 1296.081589C0 1388.2832979999998 75.4377617 1463.721059 167.63947 1463.721059L167.63947 1463.721059zM754.377617 1136.757036L502.918411 1136.757036C364.6158480000001 1136.757036 251.459206 1023.600394 251.459206 885.29783L251.459206 885.29783L251.459206 717.6583599999999C251.459206 579.3558 364.6158480000001 466.1991499999999 502.918411 466.1991499999999L502.918411 466.1991499999999L754.377617 466.1991499999999L754.377617 633.83863L502.918411 633.83863C456.817557 633.83863 419.098676 671.5575100000001 419.098676 717.6583599999999L419.098676 717.6583599999999L419.098676 885.29783C419.098676 931.398685 456.817557 969.117566 502.918411 969.117566L502.918411 969.117566L754.377617 969.117566L754.377617 1136.757036zM1424.9355 1136.757036L1173.47629 1136.757036C1035.17373 1136.757036 922.017087 1023.600394 922.017087 885.29783L922.017087 885.29783L922.017087 717.6583599999999C922.017087 579.3558 1035.17373 466.1991499999999 1173.47629 466.1991499999999L1173.47629 466.1991499999999L1424.9355 466.1991499999999L1424.9355 633.83863L1173.47629 633.83863C1127.37544 633.83863 1089.65656 671.5575100000001 1089.65656 717.6583599999999L1089.65656 717.6583599999999L1089.65656 885.29783C1089.65656 931.398685 1127.37544 969.117566 1173.47629 969.117566L1173.47629 969.117566L1424.9355 969.117566L1424.9355 1136.757036zM1822.68529 1799L1920 1700.679451L1762.25126 1541.338134L1920 1381.912998L1822.68529 1283.6762680000002L1664.93655 1443.017585L1507.10398 1283.6762680000002L1409.78927 1381.912998L1567.62183 1541.338134L1409.78927 1700.679451L1507.10398 1799L1664.93655 1639.574864L1822.68529 1799z" />
    <glyph glyph-name="closed-captioning-on"
      unicode="&#xEA3D;"
      horiz-adv-x="1920" d="M1220.70108 1441.741738C1250.97967 1255.331632 1411.36786 1112.61265 1606.29131 1120.483477L1606.29131 1120.483477L1606.29131 317.33782C1606.29131 228.9918 1534.0082 156.7086899999999 1445.66218 156.7086899999999L1445.66218 156.7086899999999L160.629131 156.7086899999999C72.2831088 156.7086899999999 0 228.9918 0 317.33782L0 317.33782L0 1281.112608C0 1369.45863 72.2831088 1441.741738 160.629131 1441.741738L160.629131 1441.741738zM1365.34761 1128.490839L1124.40392 1128.490839C991.563624 1128.490839 883.460219 1020.387434 883.460219 887.5471399999999L883.460219 887.5471399999999L883.460219 726.9180100000001C883.460219 594.07772 991.563624 485.97432 1124.40392 485.97432L1124.40392 485.97432L1365.34761 485.97432L1365.34761 646.6034500000001L1124.40392 646.6034500000001C1080.15059 646.6034500000001 1044.08935 682.6646900000001 1044.08935 726.9180100000001L1044.08935 726.9180100000001L1044.08935 887.5471399999999C1044.08935 931.800469 1080.15059 967.861708 1124.40392 967.861708L1124.40392 967.861708L1365.34761 967.861708L1365.34761 1128.490839zM722.831088 1128.490839L481.887392 1128.490839C349.047101 1128.490839 240.943696 1020.387434 240.943696 887.5471399999999L240.943696 887.5471399999999L240.943696 726.9180100000001C240.943696 594.07772 349.047101 485.97432 481.887392 485.97432L481.887392 485.97432L722.831088 485.97432L722.831088 646.6034500000001L481.887392 646.6034500000001C437.634067 646.6034500000001 401.572827 682.6646900000001 401.572827 726.9180100000001L401.572827 726.9180100000001L401.572827 887.5471399999999C401.572827 931.800469 437.634067 967.861708 481.887392 967.861708L481.887392 967.861708L722.831088 967.861708L722.831088 1128.490839zM1825.87133 1763L1920 1668.791015L1539.95148 1288.742491L1293.0645 1535.629465L1387.27349 1629.758136L1539.95148 1477.0801470000001L1825.87133 1763z" />
    <glyph glyph-name="closed-captioning"
      unicode="&#xEA3E;"
      horiz-adv-x="1920" d="M1800 175L1800 1735C1800 1768 1773 1795 1740 1795L180 1795C147 1795 120 1768 120 1735L120 175C120 142 147 115 180 115L1740 115C1773 115 1800 142 1800 175zM1740 1915C1839.24 1915 1920 1834.24 1920 1735L1920 175C1920 75.76 1839.24 -5 1740 -5L180 -5C80.76 -5 0 75.76 0 175L0 1735C0 1834.24 80.76 1915 180 1915L1740 1915zM859.522039 1066.3311370000001L699.522039 1066.3311370000001L699.522039 1119.664471L486.188706 1119.664471L486.188706 799.6644699999999L699.522039 799.6644699999999L699.522039 852.9978000000001L859.522039 852.9978000000001L859.522039 746.33114C859.522039 687.6644699999999 811.522039 639.6644699999999 752.855373 639.6644699999999L432.855373 639.6644699999999C374.188706 639.6644699999999 326.188706 687.6644699999999 326.188706 746.33114L326.188706 1172.997804C326.188706 1231.664471 374.188706 1279.664471 432.855373 1279.664471L752.855373 1279.664471C811.522039 1279.664471 859.522039 1231.664471 859.522039 1172.997804L859.522039 1066.3311370000001zM1584.52204 1066.3311370000001L1424.52204 1066.3311370000001L1424.52204 1119.664471L1211.18871 1119.664471L1211.18871 799.6644699999999L1424.52204 799.6644699999999L1424.52204 852.9978000000001L1584.52204 852.9978000000001L1584.52204 746.33114C1584.52204 687.6644699999999 1536.52204 639.6644699999999 1477.85537 639.6644699999999L1157.85537 639.6644699999999C1099.18871 639.6644699999999 1051.18871 687.6644699999999 1051.18871 746.33114L1051.18871 1172.997804C1051.18871 1231.664471 1099.18871 1279.664471 1157.85537 1279.664471L1477.85537 1279.664471C1536.52204 1279.664471 1584.52204 1231.664471 1584.52204 1172.997804L1584.52204 1066.3311370000001z" />
    <glyph glyph-name="cloud-download"
      unicode="&#xEA3F;"
      horiz-adv-x="1920" d="M1016.47059 1016.952471L1016.47059 306.2136499999999L1202.37176 492.11482L1282.33412 412.26541L960 90.04424L637.665882 412.26541L717.628235 492.11482L903.529412 306.2136499999999L903.529412 1016.952471L1016.47059 1016.952471zM960 1864C1181.81647 1864 1368.84706 1720.338824 1438.08 1521.788235C1448.13176 1522.465882 1458.07059 1525.176471 1468.23529 1525.176471C1717.38353 1525.176471 1920 1322.56 1920 1073.4117649999998C1920 824.26353 1717.38353 621.64706 1468.23529 621.64706L1468.23529 621.64706L1355.29412 621.64706L1355.29412 734.58824L1468.23529 734.58824C1655.04 734.58824 1807.05882 886.60706 1807.05882 1073.4117649999998C1807.05882 1260.216471 1655.04 1412.235294 1468.23529 1412.235294C1466.31529 1412.235294 1464.50824 1411.670588 1462.58824 1411.557647C1464.73412 1393.035294 1468.23529 1374.851765 1468.23529 1355.764706C1468.23529 1311.604706 1462.47529 1267.670588 1451.29412 1225.0917650000001L1451.29412 1225.0917650000001L1342.08 1254.0047060000002C1350.88941 1287.2094120000002 1355.29412 1321.430588 1355.29412 1355.764706C1355.29412 1573.741176 1177.97647 1751.058824 960 1751.058824C747.557647 1751.058824 574.870588 1582.098824 566.4 1371.689412C604.574118 1353.28 640.602353 1329.9011759999999 671.774118 1299.4070590000001L671.774118 1299.4070590000001L592.828235 1218.654118C539.745882 1270.72 469.609412 1299.294118 395.2941180000001 1299.294118C239.548235 1299.294118 112.941176 1172.574118 112.941176 1016.941176C112.941176 861.1952900000001 239.548235 734.58824 395.2941180000001 734.58824L395.2941180000001 734.58824L564.705882 734.58824L564.705882 621.64706L395.2941180000001 621.64706C177.317647 621.64706 0 798.96471 0 1016.941176C0 1234.917647 177.317647 1412.235294 395.2941180000001 1412.235294C416.188235 1412.235294 436.517647 1409.524706 456.847059 1406.2494120000001C482.597647 1662.512941 697.072941 1864 960 1864z" />
    <glyph glyph-name="cloud-lock"
      unicode="&#xEA40;"
      horiz-adv-x="1920" d="M1027.71953 1070.835294C1152.40659 1070.835294 1253.60188 969.527059 1253.60188 844.9529399999999L1253.60188 844.9529399999999L1253.60188 732.0117600000001L1366.54306 732.0117600000001L1366.54306 336.7176500000001C1366.54306 243.31529 1290.64659 167.3058799999999 1197.13129 167.3058799999999L1197.13129 167.3058799999999L858.307765 167.3058799999999C764.905412 167.3058799999999 688.896 243.31529 688.896 336.7176500000001L688.896 336.7176500000001L688.896 732.0117600000001L801.837176 732.0117600000001L801.837176 844.9529399999999C801.837176 969.527059 903.145412 1070.835294 1027.71953 1070.835294zM1253.60188 619.07059L801.837176 619.07059L801.837176 336.7176500000001C801.837176 305.5458799999999 827.248941 280.2470599999999 858.307765 280.2470599999999L858.307765 280.2470599999999L1197.13129 280.2470599999999C1228.30306 280.2470599999999 1253.60188 305.5458799999999 1253.60188 336.7176500000001L1253.60188 336.7176500000001L1253.60188 619.07059zM960 1753C1181.81647 1753 1368.84706 1609.338824 1438.08 1410.788235C1448.24471 1411.465882 1458.07059 1414.176471 1468.23529 1414.176471C1717.27059 1414.176471 1920 1211.56 1920 962.411765C1920 713.26353 1717.27059 510.64706 1468.23529 510.64706L1468.23529 510.64706L1468.23529 623.58824C1655.04 623.58824 1807.05882 775.60706 1807.05882 962.411765C1807.05882 1149.216471 1655.04 1301.235294 1468.23529 1301.235294C1466.31529 1301.235294 1464.50824 1300.670588 1462.58824 1300.557647C1464.73412 1282.035294 1468.23529 1263.851765 1468.23529 1244.764706C1468.23529 1200.378824 1462.47529 1156.444706 1451.29412 1113.978824L1451.29412 1113.978824L1342.08 1143.117647C1350.88941 1175.983529 1355.29412 1210.204706 1355.29412 1244.764706C1355.29412 1462.741176 1177.97647 1640.058824 960 1640.058824C747.557647 1640.058824 574.870588 1471.098824 566.287059 1260.802353C604.574118 1242.28 640.715294 1218.9011759999999 671.887059 1188.4070590000001L671.887059 1188.4070590000001L592.941176 1107.654118C539.745882 1159.72 469.609412 1188.294118 395.2941180000001 1188.294118C239.661176 1188.294118 112.941176 1061.574118 112.941176 905.94118C112.941176 750.3082400000001 239.661176 623.58824 395.2941180000001 623.58824L395.2941180000001 623.58824L564.705882 623.58824L564.705882 510.64706L395.2941180000001 510.64706C177.317647 510.64706 0 687.96471 0 905.94118C0 1123.917647 177.317647 1301.235294 395.2941180000001 1301.235294C416.188235 1301.235294 436.630588 1298.5247060000002 456.847059 1295.2494120000001C482.597647 1551.512941 697.072941 1753 960 1753zM1027.71953 957.894118C965.488941 957.894118 914.778353 907.18353 914.778353 844.9529399999999L914.778353 844.9529399999999L914.778353 732.0117600000001L1140.66071 732.0117600000001L1140.66071 844.9529399999999C1140.66071 907.18353 1090.06306 957.894118 1027.71953 957.894118z" />
    <glyph glyph-name="code"
      unicode="&#xEA41;"
      horiz-adv-x="1920" d="M561.813333 1634L643.84 1565.626667L138.88 959.866667L643.84 354L561.813333 285.6266700000001L0 959.866667L561.813333 1634zM1362.048 1634L1923.86133 959.866667L1362.048 285.6266700000001L1280.02133 354L1784.98133 959.866667L1280.02133 1565.626667L1362.048 1634z" />
    <glyph glyph-name="collapse"
      unicode="&#xEA42;"
      horiz-adv-x="1920" d="M1920 225.8235299999999L1920 112.8823500000001L0 112.8823500000001L0 225.8235299999999L1920 225.8235299999999zM1750.58824 1807C1843.99059 1807 1920 1730.9905880000001 1920 1637.588235L1920 451.70588L1807.05882 451.70588L1807.05882 1637.588235C1807.05882 1668.647059 1781.64706 1694.058824 1750.58824 1694.058824L169.411765 1694.058824C138.352941 1694.058824 112.941176 1668.647059 112.941176 1637.588235L112.941176 451.70588L0 451.70588L0 1637.588235C0 1730.9905880000001 76.0094118 1807 169.411765 1807L1750.58824 1807zM1016.47059 1355.235294L1016.47059 700.96706L1258.84235 943.451765L1338.80471 863.4894099999999L960 484.79765L581.195294 863.4894099999999L661.157647 943.451765L903.529412 700.96706L903.529412 1355.235294L1016.47059 1355.235294z" />
    <glyph glyph-name="collection-save"
      unicode="&#xEA43;"
      horiz-adv-x="1920" d="M1510.85359 140.41698L409.146414 140.41698L81.2546391 468.4236800000001L0 387.0541100000001L361.565904 25.48821L1558.4341 25.48821L1920 387.0541100000001L1838.86029 468.4236800000001L1510.85359 140.41698zM962.333054 487.46738L462.048126 987.752305L543.187837 1069.1218720000002L904.86867 707.4410399999999L904.86867 1895L1019.68251 1895L1019.68251 707.4410399999999L1381.47827 1069.1218720000002L1462.61798 987.752305L962.333054 487.46738z" />
    </font>
</defs>
</svg>
